<?xml version="1.0" standalone="no"?>
<!DOCTYPE svg PUBLIC "-//W3C//DTD SVG 1.1//EN" "http://www.w3.org/Graphics/SVG/1.1/DTD/svg11.dtd">
<svg xmlns="http://www.w3.org/2000/svg">
<defs >
<font id="SourceCodePro" horiz-adv-x="600" ><font-face
    font-family="Source Code Pro ExtraLight ExtraBold"
    units-per-em="1000"
    panose-1="2 11 3 9 3 4 3 2 2 4"
    ascent="984"
    descent="-273"
    alphabetic="0" />
<glyph unicode=" " />
<glyph unicode="!" d="M248 260L226 530L220 670H380L374 530L352 260H248ZM300 -12Q255 -12 225 18T195 94Q195 141 225 170T300 199Q346 199 375 170T405 94Q405 48 376 18T300 -12Z" />
<glyph unicode="&quot;" d="M115 294L79 533L74 684H254L249 533L213 294H115ZM387 294L351 533L346 684H526L521 533L485 294H387Z" />
<glyph unicode="#" d="M307 0L387 650H477L399 0H307ZM118 0L198 650H288L210 0H118ZM87 388V488H537V388H87ZM67 183V284H517V183H67Z" />
<glyph unicode="$" d="M60 116L129 223Q178 194 220 178T308 162Q341 162 357 172T373 200Q373 219 353 232T299 257T230 283T161 318T107 370T86 449Q86 500 114 538T192 597T311 618Q380 618 429 594T516 532L438 440Q402 465 371 477T301 490Q270 490 255 480T239
451Q239 435 259 424T313 401T382 375T451 340T505 288T526 211Q526 162 499 122T418 58T285 34Q250 34 210 43T130 71T60 116ZM251 569V745H356V569H251ZM251 100H356V-110H251V100Z" />
<glyph unicode="%" d="M175 310Q132 310 98 331T45 390T25 479Q25 557 68 602T175 647Q239 647 282 602T325 479Q325 428 306 390T252 331T175 310ZM175 394Q192 394 204 412T217 479Q217 529 205 545T175 562Q159 562 146 546T133 479Q133 430 146 412T175 394ZM96
27L15 105L203 276L257 226L96 27ZM399 375L345 425L506 624L587 545L399 375ZM425 -12Q382 -12 348 9T295 68T275 157Q275 235 318 280T425 325Q489 325 532 280T575 157Q575 106 556 68T502 9T425 -12ZM425 72Q442 72 454 90T467 157Q467 207 455 223T425 240Q409
240 396 224T383 157Q383 108 396 90T425 72Z" />
<glyph unicode="&amp;" d="M231 -12Q161 -12 114 14T44 83T20 175Q20 227 39 263T88 325T152 373T216 414T265 458T285 512Q285 534 277 546T247 558Q231 558 221 541T210 490Q210 452 232 410T292 325T375 244T468 176Q501 153 531 138T588 116L551 -12Q506 -1
462 20T373 76Q314 116 261 168T167 278T103 391T79 490Q79 536 99 575T156 639T243 663Q319 663 362 622T406 512Q406 472 389 441T345 383T288 334T231 289T187 241T170 184Q170 162 180 145T208 119T251 109Q278 109 304 126T357 173Q387 210 409 259T444 371H589Q571
298 541 231T466 102Q424 51 366 20T231 -12Z" />
<glyph unicode="&apos;" d="M251 294L215 533L210 684H390L385 533L349 294H251Z" />
<glyph unicode="(" d="M385 -179Q289 -91 232 23T175 278Q175 419 232 533T385 735L473 666Q386 578 347 487T308 278Q308 162 347 70T473 -110L385 -179Z" />
<glyph unicode=")" d="M215 -179L127 -110Q214 -22 253 70T292 278Q292 395 253 486T127 666L215 735Q312 648 368 534T425 278Q425 138 369 24T215 -179Z" />
<glyph unicode="*" d="M185 87L116 134L212 289L60 356L84 433L246 392L259 568H341L354 392L516 433L540 356L388 289L484 134L415 87L300 226L185 87Z" />
<glyph unicode="+" d="M242 92V274H67V386H242V568H358V386H533V274H358V92H242Z" />
<glyph unicode="," d="M218 -217L180 -126Q247 -103 279 -67T310 14L307 139L369 34Q354 23 337 17T301 11Q271 11 245 23T203 60T186 119Q186 167 221 196T305 226Q370 226 403 179T436 47Q436 -50 381 -117T218 -217Z" />
<glyph unicode="-" d="M67 274V386H533V274H67Z" />
<glyph unicode="." d="M300 -12Q245 -12 211 24T177 112Q177 163 211 199T300 235Q356 235 389 199T423 112Q423 60 390 24T300 -12Z" />
<glyph unicode="/" d="M69 -160L399 710H531L201 -160H69Z" />
<glyph unicode="0" d="M300 -12Q226 -12 171 26T84 138T53 320Q53 483 121 565T300 647Q411 647 479 565T547 320Q547 212 516 138T430 26T300 -12ZM300 111Q329 111 353 129T391 193T406 320Q406 401 392 445T353 506T300 524Q271 524 247 507T209 445T194 320Q194
239 208 194T247 130T300 111ZM300 243Q267 243 245 264T222 321Q222 356 244 377T300 399Q334 399 356 378T378 321Q378 286 356 265T300 243Z" />
<glyph unicode="1" d="M76 0V128H244V476H104V575Q148 581 179 589T236 608T287 635H403V128H544V0H76Z" />
<glyph unicode="2" d="M55 0V91Q143 164 210 225T316 337T354 432Q354 477 328 499T255 522Q219 522 189 503T132 460L47 545Q98 597 150 622T277 647Q345 647 396 622T476 550T505 441Q505 389 473 335T391 228T283 126Q310 129 342 131T398 134H537V0H55Z" />
<glyph unicode="3" d="M278 -12Q223 -12 179 -1T99 31T39 78L112 178Q144 151 183 134T261 116Q294 116 319 124T359 147T374 184Q374 210 358 228T303 257T190 267V379Q250 379 285 389T337 416T354 458Q354 489 331 505T266 522Q231 522 200 508T136 468L56
565Q104 603 158 625T274 647Q345 647 399 626T483 566T513 470Q513 422 482 388T394 331V327Q434 316 465 296T515 245T534 173Q534 114 498 73T404 10T278 -12Z" />
<glyph unicode="4" d="M335 0V357Q335 389 337 430T341 502H337Q321 475 303 447T267 391L186 268H561V147H34V258L289 635H484V0H335Z" />
<glyph unicode="5" d="M283 -12Q228 -12 184 -1T106 31T44 78L115 178Q136 161 158 147T206 125T259 116Q294 116 320 126T360 157T374 207Q374 252 344 274T266 297Q237 297 217 291T164 266L94 311L111 635H506V501H248L239 395Q260 402 277 404T316 407Q374
407 423 386T503 322T534 211Q534 140 499 91T407 15T283 -12Z" />
<glyph unicode="6" d="M317 -12Q268 -12 222 5T139 61T79 160T57 304Q57 392 80 456T141 563T229 626T332 647Q401 647 453 624T539 568L455 473Q436 491 407 504T346 518Q308 518 276 498T223 432T202 304Q202 226 219 183T262 124T313 107Q337 107 357 116T390
147T403 202Q403 248 379 267T317 287Q290 287 261 273T204 222L196 324Q230 360 273 379T351 399Q406 399 450 378T521 314T548 202Q548 135 516 87T432 14T317 -12Z" />
<glyph unicode="7" d="M186 0Q191 77 202 142T233 265T287 381T370 501H60V635H541V536Q481 471 445 413T389 296T360 165T346 0H186Z" />
<glyph unicode="8" d="M299 -12Q225 -12 171 10T88 71T59 162Q59 200 75 228T117 277T176 315V319Q136 347 110 383T84 469Q84 524 112 564T189 625T304 647Q399 647 456 600T514 471Q514 428 488 394T424 336V332Q457 316 484 293T526 239T542 165Q542 114 514
75T432 12T299 -12ZM342 374Q384 416 384 460Q384 484 374 501T346 527T300 536Q269 536 246 520T223 469Q223 445 238 429T280 400T342 374ZM302 98Q342 98 368 115T394 170Q394 190 384 204T354 229T309 251T249 274Q234 262 223 247T204 216T197 180Q197 154
211 136T249 108T302 98Z" />
<glyph unicode="9" d="M266 -12Q197 -12 145 12T59 66L143 161Q162 144 191 130T252 116Q291 116 323 136T376 203T396 330Q396 409 379 452T337 511T285 527Q263 527 242 518T209 488T196 432Q196 387 220 368T282 348Q309 348 338 362T395 412L402 310Q368 275
325 256T247 236Q192 236 148 256T77 320T51 432Q51 499 83 547T167 621T282 647Q330 647 376 629T460 573T519 475T541 330Q541 243 518 179T457 72T369 9T266 -12Z" />
<glyph unicode=":" d="M300 305Q245 305 211 341T177 429Q177 480 211 516T300 552Q356 552 389 516T423 429Q423 377 390 341T300 305ZM300 -12Q245 -12 211 24T177 112Q177 163 211 199T300 235Q356 235 389 199T423 112Q423 60 390 24T300 -12Z" />
<glyph unicode=";" d="M300 305Q245 305 211 341T177 429Q177 480 211 516T300 552Q356 552 389 516T423 429Q423 377 390 341T300 305ZM218 -217L180 -126Q247 -103 279 -67T310 14L307 139L369 34Q354 23 337 17T301 11Q271 11 245 23T203 60T186 119Q186 167
221 196T305 226Q370 226 403 179T436 47Q436 -50 381 -117T218 -217Z" />
<glyph unicode="&lt;" d="M504 27L115 278V386L504 637V493L245 334V330L504 171V27Z" />
<glyph unicode="=" d="M67 392V504H533V392H67ZM67 412V524H533V412H67Z" />
<glyph unicode="&gt;" d="M96 27V171L355 330V334L96 493V637L485 386V278L96 27Z" />
<glyph unicode="?" d="M213 260Q207 299 218 328T251 380T294 421T332 458T348 497Q348 526 329 540T281 554Q252 554 229 542T184 510L96 590Q133 631 182 656T292 682Q350 682 397 664T472 610T500 517Q500 478 485 451T446 402T400 362T363 318T352 260H213ZM286
-12Q241 -12 211 18T181 94Q181 141 211 170T286 199Q332 199 361 170T391 94Q391 48 362 18T286 -12Z" />
<glyph unicode="@" d="M338 -147Q279 -147 223 -123T123 -50T54 75T28 253Q28 391 69 477T179 605T329 646Q407 646 456 614T528 525T551 400V100H467L455 149H451Q433 122 404 105T334 88Q297 88 269 107T224 159T207 230Q207 285 237 319T323 373T454 402V418Q454
453 440 483T397 532T325 551Q292 551 259 535T198 483T153 390T136 250Q136 146 166 79T244 -20T345 -52Q389 -52 418 -42T475 -15L521 -93Q478 -118 436 -132T338 -147ZM370 191Q391 191 406 200T437 222V307Q373 297 348 281T323 234Q323 214 335 203T370 191Z"
/>
<glyph unicode="A" d="M4 0L204 651H396L596 0H427L348 323Q337 371 324 426T298 531H294Q284 481 272 426T247 323L168 0H4ZM142 147V270H456V147H142Z" />
<glyph unicode="B" d="M69 0V651H294Q362 651 417 637T504 587T536 489Q536 446 509 405T425 349V345Q495 332 530 295T565 192Q565 125 532 83T441 20T314 0H69ZM228 392H289Q337 392 358 412T380 466Q380 499 358 513T290 527H228V392ZM228 123H302Q357 123
383 143T409 205Q409 244 384 261T302 279H228V123Z" />
<glyph unicode="C" d="M357 -12Q296 -12 241 9T144 71T77 175T52 321Q52 430 94 506T208 623T367 663Q429 663 480 638T564 579L476 481Q454 502 428 513T367 525Q324 525 290 502T236 434T216 327Q216 263 235 218T291 150T374 126Q407 126 435 141T485 180L573
84Q533 36 478 12T357 -12Z" />
<glyph unicode="D" d="M67 0V651H251Q345 651 415 618T526 513T566 328Q566 215 527 142T418 35T260 0H67ZM227 128H242Q289 128 325 146T381 208T402 328Q402 405 382 447T325 506T242 523H227V128Z" />
<glyph unicode="E" d="M88 0V651H525V517H248V401H484V267H248V134H535V0H88Z" />
<glyph unicode="F" d="M99 0V651H539V517H259V380H498V246H259V0H99Z" />
<glyph unicode="G" d="M344 -12Q261 -12 193 25T83 136T42 321Q42 431 83 507T193 623T346 663Q412 663 459 638T538 579L450 481Q430 502 406 513T346 525Q307 525 275 502T225 434T206 327Q206 263 222 218T272 150T353 126Q368 126 383 130T407 141V243H319V373H549V67Q517
37 462 13T344 -12Z" />
<glyph unicode="H" d="M61 0V651H221V404H379V651H539V0H379V265H221V0H61Z" />
<glyph unicode="I" d="M70 0V134H220V517H70V651H530V517H380V134H530V0H70Z" />
<glyph unicode="J" d="M273 -12Q218 -12 159 11T55 95L146 194Q174 162 205 144T267 126Q313 126 337 149T361 237V517H110V651H521V224Q521 159 497 106T419 20T273 -12Z" />
<glyph unicode="K" d="M62 0V651H223V397H227L403 651H580L223 172V0H62ZM421 0L279 290L372 415L597 0H421Z" />
<glyph unicode="L" d="M101 0V651H261V134H544V0H101Z" />
<glyph unicode="M" d="M55 0V651H220L278 429L298 342H302L322 429L380 651H545V0H412V177Q412 206 414 248T419 336T426 425T433 494H430L377 310L335 172H261L217 310L169 494H165Q168 467 172 425T178 337T183 248T186 177V0H55Z" />
<glyph unicode="N" d="M63 0V651H226L349 344L403 199H407Q401 252 393 317T385 442V651H537V0H374L251 308L197 452H193Q199 397 207 333T215 210V0H63Z" />
<glyph unicode="O" d="M300 -12Q222 -12 163 26T70 140T36 328Q36 438 69 512T162 625T300 663Q378 663 437 625T530 513T564 328Q564 216 531 141T438 27T300 -12ZM300 126Q331 126 353 148T388 216T401 328Q401 393 389 437T354 503T300 525Q269 525 247 503T212
437T199 328Q199 261 211 216T246 149T300 126Z" />
<glyph unicode="P" d="M69 0V651H307Q377 651 435 631T529 565T564 438Q564 360 529 311T434 238T307 214H229V0H69ZM229 340H299Q355 340 381 365T408 438Q408 486 380 505T299 524H229V340Z" />
<glyph unicode="Q" d="M300 -12Q222 -12 163 26T70 140T36 328Q36 438 69 512T162 625T300 663Q378 663 437 625T530 513T564 328Q564 216 531 141T438 27T300 -12ZM300 118Q331 118 353 140T388 208T401 328Q401 393 389 437T354 503T300 525Q269 525 247 503T212
437T199 328Q199 255 211 209T246 140T300 118ZM489 -181Q389 -181 322 -129T223 5L385 22Q394 -8 414 -24T458 -47T507 -54Q522 -54 536 -50T561 -41L589 -158Q573 -168 548 -174T489 -181Z" />
<glyph unicode="R" d="M64 0V651H301Q370 651 428 633T521 569T556 444Q556 368 521 320T428 249T301 226H223V0H64ZM223 353H289Q343 353 371 376T400 444Q400 490 372 507T289 524H223V353ZM272 268L381 372L590 0H412L272 268Z" />
<glyph unicode="S" d="M297 -12Q232 -12 167 11T47 82L138 191Q176 162 219 144T308 126Q351 126 370 139T390 173Q390 194 379 206T345 228T293 250L210 285Q173 299 142 323T91 382T72 465Q72 520 102 564T188 636T316 663Q374 663 431 642T535 577L455 476Q420
500 387 512T307 525Q275 525 255 513T234 474Q234 457 246 446T282 425T338 403L415 371Q459 355 489 331T536 273T553 193Q553 138 524 92T437 17T297 -12Z" />
<glyph unicode="T" d="M220 0V517H29V651H571V517H380V0H220Z" />
<glyph unicode="U" d="M302 -12Q240 -12 195 6T121 58T76 140T61 251V651H221V234Q221 200 229 176T255 139T302 126Q331 126 349 139T376 176T385 234V651H539V251Q539 189 525 141T482 58T409 6T302 -12Z" />
<glyph unicode="V" d="M204 0L9 651H178L252 357Q266 304 277 254T302 150H306Q320 203 331 253T356 357L427 651H591L396 0H204Z" />
<glyph unicode="W" d="M87 0L3 651H168L181 316Q182 289 182 262T182 207T183 151H187Q191 179 196 206T208 261T219 316L259 486H356L393 316Q398 290 403 263T415 208T425 151H429Q429 180 429 208T430 262T431 316L444 651H598L520 0H352L318 190Q313 222 309
254T302 316H299Q297 287 293 255T283 190L251 0H87Z" />
<glyph unicode="X" d="M11 0L200 335L22 651H200L258 536Q269 514 281 488T307 430H311Q323 462 334 488T355 536L407 651H578L400 327L589 0H411L345 124Q332 150 320 176T294 232H290Q279 202 268 176T243 124L182 0H11Z" />
<glyph unicode="Y" d="M220 0V218L12 651H183L243 501Q257 464 271 428T299 353H303Q318 392 332 428T361 502L421 651H588L380 218V0H220Z" />
<glyph unicode="Z" d="M55 0V97L348 517H82V651H545V554L252 134H549V0H55Z" />
<glyph unicode="[" d="M195 -152V708H495V624H316V-68H495V-152H195Z" />
<glyph unicode="\" d="M399 -160L69 710H201L531 -160H399Z" />
<glyph unicode="]" d="M105 -152V-68H284V624H105V708H405V-152H105Z" />
<glyph unicode="^" d="M81 272L236 670H364L519 272H389L347 391L302 527H298L253 391L211 272H81Z" />
<glyph unicode="_" d="M60 -169V-51H540V-169H60Z" />
<glyph unicode="`" d="M303 559L118 717L225 823L381 637L303 559Z" />
<glyph unicode="a" d="M220 -12Q169 -12 133 9T78 64T58 140Q58 223 131 267T379 322Q376 342 364 355T331 376T278 384Q256 384 233 379T185 363T131 339L74 444Q111 464 149 479T227 502T309 510Q380 510 431 486T510 411T538 281V0H408L397 54H393Q356 26 312
7T220 -12ZM271 111Q303 111 329 123T379 154V226Q312 224 275 214T224 188T210 153Q210 139 217 130T238 116T271 111Z" />
<glyph unicode="b" d="M342 -12Q307 -12 273 4T209 54H206L193 0H68V698H228V532L222 457H226Q253 482 287 496T356 510Q418 510 462 479T531 391T556 258Q556 172 525 112T446 20T342 -12ZM304 118Q328 118 348 131T380 175T392 255Q392 298 383 325T356 366T309
380Q288 380 268 371T228 339V147Q246 131 266 125T304 118Z" />
<glyph unicode="c" d="M343 -12Q264 -12 201 19T101 108T64 249Q64 332 104 390T211 479T354 510Q414 510 462 492T542 443L469 345Q441 365 416 373T364 382Q324 382 293 366T245 319T228 249Q228 208 244 179T290 133T358 116Q396 116 427 130T485 161L548 61Q503
23 448 6T343 -12Z" />
<glyph unicode="d" d="M254 -12Q159 -12 102 58T44 249Q44 331 75 389T154 478T255 510Q296 510 324 497T376 458H380L372 533V698H532V0H402L391 48H387Q360 23 325 6T254 -12ZM295 118Q318 118 337 127T372 159V351Q355 368 337 374T298 380Q274 380 253 367T220
325T208 251Q208 181 231 150T295 118Z" />
<glyph unicode="e" d="M330 -12Q252 -12 189 19T90 108T53 249Q53 331 90 389T186 478T313 510Q390 510 442 478T521 392T548 270Q548 249 546 230T542 201H172V306H432L409 277Q409 332 386 360T318 389Q283 389 259 374T221 328T207 249Q207 200 223 169T272
124T352 109Q384 109 413 117T476 141L528 46Q485 19 432 4T330 -12Z" />
<glyph unicode="f" d="M208 0V506Q208 562 231 608T305 682T435 710Q478 710 517 702T587 684L556 567Q534 576 508 581T455 586Q411 586 389 568T367 506V0H208ZM78 373V492L213 498H531V373H78Z" />
<glyph unicode="g" d="M273 -209Q210 -209 159 -196T78 -156T48 -83Q48 -52 67 -28T124 15V19Q104 32 89 52T74 104Q74 129 91 154T134 197V201Q107 220 87 253T67 329Q67 390 97 430T177 490T284 510Q331 510 367 498H569V382H474Q481 372 486 357T492 324Q492
266 465 229T390 175T284 157Q270 157 254 159T218 166Q208 158 204 152T199 133Q199 116 218 108T281 100H369Q467 100 520 70T574 -28Q574 -81 537 -121T433 -185T273 -209ZM284 253Q303 253 318 261T342 287T352 329Q352 354 343 370T318 395T284 404Q266 404
251 396T226 371T217 329Q217 304 226 287T250 262T284 253ZM297 -109Q334 -109 362 -103T406 -84T422 -56Q422 -34 401 -28T340 -22H283Q255 -22 238 -21T208 -15Q192 -26 185 -35T177 -58Q177 -84 210 -96T297 -109Z" />
<glyph unicode="h" d="M68 0V698H228V532L218 440H222Q248 466 288 488T383 510Q467 510 505 456T543 307V0H383V287Q383 332 369 353T318 374Q291 374 271 363T228 330V0H68Z" />
<glyph unicode="i" d="M271 0V373H76V498H431V0H271ZM345 571Q300 571 271 597T241 666Q241 709 270 735T345 762Q390 762 419 736T449 666Q449 623 420 597T345 571Z" />
<glyph unicode="j" d="M195 -192Q147 -192 110 -183T40 -158L85 -45Q117 -58 140 -62T184 -67Q218 -67 236 -57T263 -25T271 32V373H76V498H431V38Q431 -8 420 -49T382 -123T310 -173T195 -192ZM345 571Q300 571 271 597T241 666Q241 709 270 735T345 762Q390
762 419 736T449 666Q449 623 420 597T345 571Z" />
<glyph unicode="k" d="M70 0V698H229V309H233L401 498H574L229 123V0H70ZM415 0L280 219L371 317L588 0H415Z" />
<glyph unicode="l" d="M393 -12Q296 -12 247 46T198 200V574H46V698H357V194Q357 150 382 133T435 116Q452 116 469 120T510 132L545 14Q506 2 474 -5T393 -12Z" />
<glyph unicode="m" d="M30 0V498H150L161 437H165Q178 467 203 488T272 510Q303 510 325 490T357 429Q369 462 396 486T465 510Q519 510 548 467T577 348V0H426V337Q426 374 404 374Q392 374 383 364T365 331V0H242V337Q242 356 237 365T218 374Q207 374 199 364T181
331V0H30Z" />
<glyph unicode="n" d="M68 0V498H198L209 435H213Q244 465 285 487T383 510Q466 510 504 456T543 307V0H383V287Q383 332 369 353T318 374Q291 374 271 363T228 330V0H68Z" />
<glyph unicode="o" d="M300 -12Q234 -12 176 19T81 108T44 249Q44 332 80 390T175 479T300 510Q366 510 424 479T519 390T556 249Q556 166 520 108T425 19T300 -12ZM300 116Q331 116 351 132T382 178T392 249Q392 289 382 319T352 365T300 382Q269 382 249 366T218
319T208 249Q208 208 218 179T248 133T300 116Z" />
<glyph unicode="p" d="M68 -180V498H198L209 450H213Q243 477 280 493T357 510Q419 510 463 479T531 391T556 257Q556 171 525 111T446 20T341 -12Q309 -12 279 1T224 40H220L228 -38V-180H68ZM304 118Q328 118 348 131T380 175T392 255Q392 298 383 325T356 366T309
380Q288 380 268 371T228 339V147Q246 131 266 125T304 118Z" />
<glyph unicode="q" d="M372 -180V-37L380 41H376Q353 18 320 3T253 -12Q159 -12 102 58T44 249Q44 331 75 389T154 478T255 510Q297 510 329 495T391 448H394L407 498H532V-180H372ZM295 118Q318 118 337 127T372 159V351Q355 368 337 374T298 380Q274 380 253
367T220 325T208 251Q208 181 231 150T295 118Z" />
<glyph unicode="r" d="M110 0V498H241L253 391H257Q293 452 345 481T455 510Q489 510 509 505T550 490L518 356Q496 364 477 367T431 371Q386 371 343 345T269 253V0H110Z" />
<glyph unicode="s" d="M293 -12Q228 -12 163 10T50 64L117 163Q163 135 213 120T315 105Q352 105 368 115T385 142Q385 151 380 158T362 170T327 181T270 194Q168 216 125 255T81 351Q81 423 143 466T314 510Q383 510 438 488T533 441L462 346Q423 369 381 381T299
393Q280 393 267 389T246 377T239 359Q239 341 263 334T348 311Q424 294 466 273T526 222T543 151Q543 105 515 68T431 10T293 -12Z" />
<glyph unicode="t" d="M387 -12Q307 -12 259 15T190 93T168 209V373H46V492L175 498L196 649H328V498H531V373H328V211Q328 175 339 153T372 122T428 113Q455 113 478 117T523 130L551 14Q518 5 478 -3T387 -12Z" />
<glyph unicode="u" d="M218 -12Q134 -12 97 43T59 191V498H218V211Q218 166 231 145T283 124Q308 124 327 134T369 174V498H528V0H398L387 69H383Q351 32 312 10T218 -12Z" />
<glyph unicode="v" d="M211 0L28 498H187L259 272Q271 235 281 197T302 118H306Q317 158 327 196T348 272L420 498H572L394 0H211Z" />
<glyph unicode="w" d="M80 0L3 498H157L182 278Q187 241 190 204T198 129H201Q205 167 210 204T223 278L248 425H359L387 278Q394 241 400 204T410 129H414Q420 167 421 204T427 278L449 498H597L526 0H341L319 148Q315 181 311 217T302 295H298Q295 267 292 233T283
148L261 0H80Z" />
<glyph unicode="x" d="M32 0L202 259L43 498H214L260 423Q271 402 284 380T310 337H314Q323 358 333 380T352 423L391 498H557L397 241L567 0H396L344 76Q331 97 317 119T289 162H285Q274 141 263 120T242 76L198 0H32Z" />
<glyph unicode="y" d="M145 -191Q123 -191 103 -188T67 -181L95 -60Q105 -63 114 -64T132 -66Q174 -66 197 -50T231 -9L240 15L28 498H185L262 295Q275 260 287 223T309 145H313Q323 182 334 220T358 295L424 498H574L383 1Q358 -63 327 -106T253 -170T145 -191Z" />
<glyph unicode="z" d="M70 0V85L314 373H99V498H536V413L290 125H542V0H70Z" />
<glyph unicode="{" d="M415 -152Q319 -152 274 -121T228 -8Q228 27 230 52T235 102T238 159Q238 176 226 192T185 219T103 231V325Q156 326 185 337T226 364T238 397Q238 429 236 453T231 503T228 564Q228 646 273 677T415 708H495V624H456Q416 624 395 619T367
600T359 558Q359 519 361 481T363 398Q363 340 339 315T261 280V276Q315 267 339 242T363 158Q363 114 361 76T359 -2Q359 -29 366 -43T395 -63T456 -68H495V-152H415Z" />
<glyph unicode="|" d="M229 -250V750H371V-250H229Z" />
<glyph unicode="}" d="M106 -152V-68H145Q185 -68 205 -63T233 -44T241 -2Q241 37 240 75T238 158Q238 216 262 241T340 276V280Q286 289 262 314T238 398Q238 443 239 481T241 558Q241 585 234 599T206 619T145 624H106V708H186Q283 708 327 677T372 564Q372
529 370 504T365 454T362 397Q362 380 374 364T415 337T498 325V231Q445 230 416 219T374 192T362 159Q362 127 365 103T370 53T372 -8Q372 -89 328 -120T186 -152H106Z" />
<glyph unicode="~" d="M385 237Q354 237 331 248T288 274T252 299T213 311Q200 311 188 302T163 275T142 230L47 275Q81 354 124 388T215 423Q247 423 270 412T312 386T348 361T387 349Q401 349 413 358T437 385T458 430L553 385Q520 306 477 272T385 237Z" />
<glyph unicode="&#xa0;" />
<glyph unicode="&#xa1;" d="M220 -172L226 -32L248 238H352L374 -32L380 -172H220ZM300 299Q255 299 225 328T195 404Q195 450 225 480T300 510Q346 510 375 480T405 404Q405 357 376 328T300 299Z" />
<glyph unicode="&#xa2;" d="M360 48Q280 48 220 78T127 166T93 307Q93 389 130 446T232 535T375 566Q420 566 457 551T520 509L447 411Q431 426 416 431T384 437Q337 437 307 421T262 376T247 307Q247 247 281 212T378 176Q404 176 425 186T463 210L527 110Q490
77 445 63T360 48ZM311 -42V656H397V-42H311Z" />
<glyph unicode="&#xa3;" d="M65 0V98Q114 118 147 156T181 247Q181 270 174 294T157 343T140 391T133 437Q133 501 163 548T245 621T365 647Q426 647 471 626T553 564L467 478Q448 499 427 508T380 518Q337 518 311 497T284 428Q284 406 289 384T302 340T314 294T320
245Q320 213 309 189T270 138V134H553V0H65ZM69 269V360L154 366H459V269H69Z" />
<glyph unicode="&#xa4;" d="M111 60L31 139L112 220Q96 243 87 270T78 330Q78 362 87 389T111 438L31 519L111 598L200 509Q248 531 300 531Q352 531 400 509L489 598L569 519L488 438Q504 416 513 389T522 330Q522 298 513 271T487 220L569 139L489 60L399 150Q376
139 351 134T300 129Q247 129 201 150L111 60ZM300 239Q323 239 341 250T369 281T380 330Q380 358 370 378T341 410T300 421Q277 421 260 410T231 379T220 330Q220 302 231 282T259 250T300 239Z" />
<glyph unicode="&#xa5;" d="M220 0V144H54V220H220V272H54V347H185L27 635H190L245 509Q260 476 273 444T300 378H304Q318 411 331 444T358 509L413 635H573L414 347H546V272H380V220H546V144H380V0H220Z" />
<glyph unicode="&#xa6;" d="M229 -250V190H371V-250H229ZM229 310V750H371V310H229Z" />
<glyph unicode="&#xa7;" d="M274 -88Q219 -88 165 -67T75 -1L167 80Q191 55 219 42T274 29Q303 29 316 39T329 66Q329 84 311 97T262 122T199 150T135 188T87 243T68 323Q68 368 100 409T185 468L265 403Q233 392 218 375T202 334Q202 310 221 293T272 261T337
232T402 197T452 147T472 74Q472 28 450 -8T384 -66T274 -88ZM334 201Q368 213 383 229T398 271Q398 297 378 314T327 346T259 376T191 410T139 460T119 533Q119 580 141 615T204 671T302 691Q362 691 409 670T488 624L415 526Q392 546 364 560T311 574Q286 574
274 566T262 539Q262 523 281 510T332 485T397 456T462 417T512 362T532 284Q532 251 520 225T484 176T425 137L334 201Z" />
<glyph unicode="&#xa8;" d="M186 567Q149 567 126 592T102 653Q102 688 125 713T187 738Q224 738 248 713T272 653Q272 617 248 592T186 567ZM413 567Q376 567 352 592T328 653Q328 688 352 713T414 738Q451 738 474 713T498 653Q498 617 475 592T413 567Z" />
<glyph unicode="&#xa9;" d="M300 -8Q224 -8 160 32T56 147T16 326Q16 429 55 503T159 616T300 656Q376 656 440 617T544 503T584 326Q584 222 545 147T441 32T300 -8ZM300 56Q364 56 412 89T488 184T515 326Q515 407 488 466T413 558T300 591Q236 591 188 559T112
467T85 326Q85 245 112 184T187 90T300 56ZM313 128Q262 128 223 151T160 219T137 324Q137 383 162 426T226 493T312 517Q352 517 378 503T426 468L367 402Q356 413 346 419T323 425Q287 425 269 396T251 324Q251 276 269 248T317 220Q335 220 347 226T373 242L424
169Q400 150 373 139T313 128Z" />
<glyph unicode="&#xaa;" d="M253 364Q202 364 172 394T142 464Q142 516 191 548T353 584Q351 598 343 606T322 618T290 622Q269 622 245 616T192 593L152 667Q188 687 229 698T313 710Q381 710 422 674T463 557V372H373L366 406H363Q341 387 313 376T253 364ZM284
446Q306 446 322 453T353 472V522Q294 518 271 506T248 475Q248 461 258 454T284 446Z" />
<glyph unicode="&#xab;" d="M209 19L34 172V332L209 485L276 425L148 252L276 79L209 19ZM481 19L306 172V332L481 485L548 425L420 252L548 79L481 19Z" />
<glyph unicode="&#xac;" d="M417 92V274H67V386H533V92H417Z" />
<glyph unicode="&#xad;" d="M67 274V386H533V274H67Z" />
<glyph unicode="&#xae;" d="M299 310Q244 310 199 336T126 408T99 513Q99 571 126 617T198 689T299 716Q354 716 400 690T472 617T499 513Q499 454 473 408T400 336T299 310ZM299 361Q341 361 373 380T424 432T442 513Q442 559 424 592T374 645T299 664Q257 664
225 645T175 593T156 513Q156 466 174 433T225 380T299 361ZM217 416V611H308Q344 611 367 595T390 546Q390 529 382 515T355 491L396 416H333L304 474H278V416H217ZM278 516H297Q311 516 318 524T325 542Q325 552 318 559T297 566H278V516Z" />
<glyph unicode="&#xaf;" d="M149 590V691H451V590H149Z" />
<glyph unicode="&#xb0;" d="M301 392Q259 392 226 411T173 463T153 539Q153 581 172 614T225 667T301 686Q343 686 376 667T429 615T449 539Q449 496 430 463T377 411T301 392ZM301 467Q331 467 348 487T366 539Q366 571 349 591T301 611Q272 611 254 591T235
539Q235 507 253 487T301 467Z" />
<glyph unicode="&#xb1;" d="M242 164V292H67V404H242V568H358V404H533V292H358V164H242ZM67 0V112H533V0H67Z" />
<glyph unicode="&#xb2;" d="M153 372L144 434Q202 474 244 508T310 570T333 621Q333 648 317 663T269 678Q248 678 228 667T191 633L125 693Q158 734 199 754T288 774Q359 774 402 739T445 641Q445 611 431 583T391 527T329 469H458V372H153Z" />
<glyph unicode="&#xb3;" d="M298 360Q243 360 199 379T126 439L196 494Q215 468 237 458T285 448Q312 448 329 459T347 490Q347 515 324 526T250 538V604Q288 604 310 614T333 648Q333 666 319 676T279 686Q258 686 240 676T208 648L142 706Q176 743 212 758T299
774Q339 774 372 761T426 723T447 664Q447 634 432 613T383 575Q420 564 440 540T461 481Q461 445 438 418T378 375T298 360Z" />
<glyph unicode="&#xb4;" d="M297 559L219 637L375 823L482 717L297 559Z" />
<glyph unicode="&#xb5;" d="M60 -198V498H219V211Q219 161 235 143T280 124Q298 124 313 131T342 153T368 193V498H529Q527 442 524 378T520 255T518 159Q518 135 528 126T555 116Q560 116 563 116T573 118L591 1Q579 -4 559 -8T513 -12Q463 -12 432 11T386 78H382Q364
37 335 15T271 -7Q256 -7 239 -3T210 13Q211 -24 212 -59T215 -128T221 -198H60Z" />
<glyph unicode="&#xb6;" d="M283 192Q219 192 164 218T76 297T43 427Q43 512 76 561T163 630T282 651H323V192H283ZM375 -80V651H534V-80H375Z" />
<glyph unicode="&#xb7;" d="M300 231Q245 231 211 267T177 355Q177 406 211 442T300 478Q356 478 389 442T423 355Q423 303 390 267T300 231Z" />
<glyph unicode="&#xb8;" d="M195 -242L184 -179Q241 -176 263 -167T285 -136Q285 -121 270 -111T209 -95L261 11H352L321 -61Q360 -69 379 -86T399 -136Q399 -188 345 -213T195 -242Z" />
<glyph unicode="&#xb9;" d="M284 372V647H175V718Q225 726 253 734T310 762H402V372H284ZM164 372V469H505V372H164Z" />
<glyph unicode="&#xba;" d="M300 364Q255 364 217 384T155 443T131 536Q131 591 154 630T216 689T300 710Q345 710 383 690T445 630T469 536Q469 482 446 444T384 385T300 364ZM300 452Q331 452 343 475T355 536Q355 575 343 597T300 620Q270 620 258 598T245
536Q245 498 257 475T300 452Z" />
<glyph unicode="&#xbb;" d="M119 19L52 79L180 252L52 425L119 485L294 332V172L119 19ZM391 19L324 79L452 252L324 425L391 485L566 332V172L391 19Z" />
<glyph unicode="&#xbc;" d="M130 322V531H49V599Q89 604 110 611T156 635H246V322H130ZM95 27L14 105L202 276L256 226L95 27ZM398 375L344 425L505 624L586 545L398 375ZM443 0V216H544V0H443ZM284 58V114L376 325L459 294L385 129H596V58H284Z" />
<glyph unicode="&#xbd;" d="M130 322V531H49V599Q89 604 110 611T156 635H246V322H130ZM95 27L14 105L202 276L256 226L95 27ZM398 375L344 425L505 624L586 545L398 375ZM312 0V59Q351 84 384 109T436 156T456 195Q456 212 446 222T415 233Q403 233 389 225T363
200L297 259Q326 289 359 307T433 325Q494 325 530 296T566 216Q566 194 556 173T528 131T493 93H577V0H312Z" />
<glyph unicode="&#xbe;" d="M158 310Q127 310 92 316T19 349L63 420Q78 411 100 403T143 394Q159 394 170 401T181 420Q181 435 165 443T113 452V511Q138 511 153 516T169 539Q169 550 160 556T134 562Q117 562 101 555T69 539L24 606Q48 624 83 635T160 647Q210
647 245 623T281 558Q281 530 270 514T227 487Q264 477 278 458T293 411Q293 382 275 359T225 323T158 310ZM99 27L18 105L206 276L260 226L99 27ZM402 375L348 425L509 624L590 545L402 375ZM443 0V216H544V0H443ZM284 58V114L376 325L459 294L385 129H596V58H284Z"
/>
<glyph unicode="&#xbf;" d="M308 -184Q250 -184 203 -166T128 -112T100 -19Q100 20 115 47T154 96T200 136T237 180T248 238H387Q393 199 382 170T349 118T306 77T268 40T252 1Q252 -28 272 -42T319 -56Q349 -56 371 -44T416 -12L504 -92Q467 -133 418 -158T308
-184ZM314 299Q269 299 239 328T209 404Q209 450 239 480T314 510Q360 510 389 480T419 404Q419 357 390 328T314 299Z" />
<glyph unicode="&#xc0;" d="M4 0L204 651H396L596 0H427L348 323Q337 371 324 426T298 531H294Q284 481 272 426T247 323L168 0H4ZM142 147V270H456V147H142ZM338 677L149 796L233 899L409 757L338 677Z" />
<glyph unicode="&#xc1;" d="M4 0L204 651H396L596 0H427L348 323Q337 371 324 426T298 531H294Q284 481 272 426T247 323L168 0H4ZM142 147V270H456V147H142ZM262 677L191 757L367 899L451 796L262 677Z" />
<glyph unicode="&#xc2;" d="M4 0L204 651H396L596 0H427L348 323Q337 371 324 426T298 531H294Q284 481 272 426T247 323L168 0H4ZM142 147V270H456V147H142ZM195 683L126 724L213 835H387L474 724L405 683L302 764H298L195 683Z" />
<glyph unicode="&#xc3;" d="M4 0L204 651H396L596 0H427L348 323Q337 371 324 426T298 531H294Q284 481 272 426T247 323L168 0H4ZM142 147V270H456V147H142ZM371 689Q344 689 324 697T288 716T260 735T235 744Q222 744 213 735T200 698L98 706Q103 785 139 819T229
854Q256 854 276 846T313 827T341 808T365 799Q378 799 387 809T400 845L502 837Q498 759 461 724T371 689Z" />
<glyph unicode="&#xc4;" d="M4 0L204 651H396L596 0H427L348 323Q337 371 324 426T298 531H294Q284 481 272 426T247 323L168 0H4ZM142 147V270H456V147H142ZM186 697Q152 697 130 719T108 775Q108 808 130 830T186 852Q220 852 241 830T263 775Q263 742 242 720T186
697ZM414 697Q380 697 359 719T337 775Q337 808 358 830T414 852Q448 852 470 830T492 775Q492 742 470 720T414 697Z" />
<glyph unicode="&#xc5;" d="M4 0L204 651H396L596 0H427L348 323Q337 371 324 426T298 531H294Q284 481 272 426T247 323L168 0H4ZM142 147V270H456V147H142ZM300 696Q248 696 216 724T183 797Q183 843 215 870T300 897Q352 897 384 870T417 797Q417 752 385 724T300
696ZM300 755Q317 755 328 766T340 797Q340 816 329 827T300 839Q283 839 272 828T260 797Q260 778 271 767T300 755Z" />
<glyph unicode="&#xc6;" d="M-4 0L205 651H587V517H451V402H563V269H451V134H595V0H310V532H307Q296 484 283 439T259 352L160 0H-4ZM133 140V264H370V140H133Z" />
<glyph unicode="&#xc7;" d="M357 -12Q296 -12 241 9T144 71T77 175T52 321Q52 430 94 506T208 623T367 663Q429 663 480 638T564 579L476 481Q454 502 428 513T367 525Q324 525 290 502T236 434T216 327Q216 263 235 218T291 150T374 126Q407 126 435 141T485
180L573 84Q533 36 478 12T357 -12ZM236 -242L225 -179Q282 -176 304 -167T326 -136Q326 -121 311 -111T250 -95L302 11H393L362 -61Q401 -69 420 -86T440 -136Q440 -188 386 -213T236 -242Z" />
<glyph unicode="&#xc8;" d="M88 0V651H525V517H248V401H484V267H248V134H535V0H88ZM360 677L171 796L255 899L431 757L360 677Z" />
<glyph unicode="&#xc9;" d="M88 0V651H525V517H248V401H484V267H248V134H535V0H88ZM284 677L213 757L389 899L473 796L284 677Z" />
<glyph unicode="&#xca;" d="M88 0V651H525V517H248V401H484V267H248V134H535V0H88ZM217 683L148 724L235 835H409L496 724L427 683L324 764H320L217 683Z" />
<glyph unicode="&#xcb;" d="M88 0V651H525V517H248V401H484V267H248V134H535V0H88ZM208 697Q174 697 152 719T130 775Q130 808 152 830T208 852Q242 852 263 830T285 775Q285 742 264 720T208 697ZM436 697Q402 697 381 719T359 775Q359 808 380 830T436 852Q470
852 492 830T514 775Q514 742 492 720T436 697Z" />
<glyph unicode="&#xcc;" d="M70 0V134H220V517H70V651H530V517H380V134H530V0H70ZM338 677L149 796L233 899L409 757L338 677Z" />
<glyph unicode="&#xcd;" d="M70 0V134H220V517H70V651H530V517H380V134H530V0H70ZM262 677L191 757L367 899L451 796L262 677Z" />
<glyph unicode="&#xce;" d="M70 0V134H220V517H70V651H530V517H380V134H530V0H70ZM195 683L126 724L213 835H387L474 724L405 683L302 764H298L195 683Z" />
<glyph unicode="&#xcf;" d="M70 0V134H220V517H70V651H530V517H380V134H530V0H70ZM186 697Q152 697 130 719T108 775Q108 808 130 830T186 852Q220 852 241 830T263 775Q263 742 242 720T186 697ZM414 697Q380 697 359 719T337 775Q337 808 358 830T414 852Q448
852 470 830T492 775Q492 742 470 720T414 697Z" />
<glyph unicode="&#xd0;" d="M67 0V295H-2V367L67 373V651H252Q345 651 415 618T526 513T566 328Q566 215 526 142T418 35T261 0H67ZM227 128H242Q288 128 324 146T381 207T402 328Q402 405 381 447T324 506T242 523H227V373H328V295H227V128Z" />
<glyph unicode="&#xd1;" d="M63 0V651H226L349 344L403 199H407Q401 252 393 317T385 442V651H537V0H374L251 308L197 452H193Q199 397 207 333T215 210V0H63ZM381 689Q354 689 334 697T298 716T270 735T245 744Q232 744 223 735T210 698L108 706Q113 785 149
819T239 854Q266 854 286 846T323 827T351 808T375 799Q388 799 397 809T410 845L512 837Q508 759 471 724T381 689Z" />
<glyph unicode="&#xd2;" d="M300 -12Q222 -12 163 26T70 140T36 328Q36 438 69 512T162 625T300 663Q378 663 437 625T530 513T564 328Q564 216 531 141T438 27T300 -12ZM300 126Q331 126 353 148T388 216T401 328Q401 393 389 437T354 503T300 525Q269 525 247
503T212 437T199 328Q199 261 211 216T246 149T300 126ZM338 677L149 796L233 899L409 757L338 677Z" />
<glyph unicode="&#xd3;" d="M300 -12Q222 -12 163 26T70 140T36 328Q36 438 69 512T162 625T300 663Q378 663 437 625T530 513T564 328Q564 216 531 141T438 27T300 -12ZM300 126Q331 126 353 148T388 216T401 328Q401 393 389 437T354 503T300 525Q269 525 247
503T212 437T199 328Q199 261 211 216T246 149T300 126ZM262 677L191 757L367 899L451 796L262 677Z" />
<glyph unicode="&#xd4;" d="M300 -12Q222 -12 163 26T70 140T36 328Q36 438 69 512T162 625T300 663Q378 663 437 625T530 513T564 328Q564 216 531 141T438 27T300 -12ZM300 126Q331 126 353 148T388 216T401 328Q401 393 389 437T354 503T300 525Q269 525 247
503T212 437T199 328Q199 261 211 216T246 149T300 126ZM195 683L126 724L213 835H387L474 724L405 683L302 764H298L195 683Z" />
<glyph unicode="&#xd5;" d="M300 -12Q222 -12 163 26T70 140T36 328Q36 438 69 512T162 625T300 663Q378 663 437 625T530 513T564 328Q564 216 531 141T438 27T300 -12ZM300 126Q331 126 353 148T388 216T401 328Q401 393 389 437T354 503T300 525Q269 525 247
503T212 437T199 328Q199 261 211 216T246 149T300 126ZM371 689Q344 689 324 697T288 716T260 735T235 744Q222 744 213 735T200 698L98 706Q103 785 139 819T229 854Q256 854 276 846T313 827T341 808T365 799Q378 799 387 809T400 845L502 837Q498 759 461 724T371
689Z" />
<glyph unicode="&#xd6;" d="M300 -12Q222 -12 163 26T70 140T36 328Q36 438 69 512T162 625T300 663Q378 663 437 625T530 513T564 328Q564 216 531 141T438 27T300 -12ZM300 126Q331 126 353 148T388 216T401 328Q401 393 389 437T354 503T300 525Q269 525 247
503T212 437T199 328Q199 261 211 216T246 149T300 126ZM186 697Q152 697 130 719T108 775Q108 808 130 830T186 852Q220 852 241 830T263 775Q263 742 242 720T186 697ZM414 697Q380 697 359 719T337 775Q337 808 358 830T414 852Q448 852 470 830T492 775Q492
742 470 720T414 697Z" />
<glyph unicode="&#xd7;" d="M160 109L80 188L221 329L80 470L160 549L300 408L440 549L520 470L379 329L520 188L440 109L300 250L160 109Z" />
<glyph unicode="&#xd8;" d="M15 11L499 695L584 640L101 -44L15 11ZM300 -12Q222 -12 163 26T70 140T36 328Q36 438 69 512T162 625T300 663Q378 663 437 625T530 513T564 328Q564 216 531 141T438 27T300 -12ZM300 126Q331 126 353 148T388 216T401 328Q401 393
389 437T354 503T300 525Q269 525 247 503T212 437T199 328Q199 261 211 216T246 149T300 126Z" />
<glyph unicode="&#xd9;" d="M302 -12Q240 -12 195 6T121 58T76 140T61 251V651H221V234Q221 200 229 176T255 139T302 126Q331 126 349 139T376 176T385 234V651H539V251Q539 189 525 141T482 58T409 6T302 -12ZM338 677L149 796L233 899L409 757L338 677Z" />
<glyph unicode="&#xda;" d="M302 -12Q240 -12 195 6T121 58T76 140T61 251V651H221V234Q221 200 229 176T255 139T302 126Q331 126 349 139T376 176T385 234V651H539V251Q539 189 525 141T482 58T409 6T302 -12ZM262 677L191 757L367 899L451 796L262 677Z" />
<glyph unicode="&#xdb;" d="M302 -12Q240 -12 195 6T121 58T76 140T61 251V651H221V234Q221 200 229 176T255 139T302 126Q331 126 349 139T376 176T385 234V651H539V251Q539 189 525 141T482 58T409 6T302 -12ZM195 683L126 724L213 835H387L474 724L405 683L302
764H298L195 683Z" />
<glyph unicode="&#xdc;" d="M302 -12Q240 -12 195 6T121 58T76 140T61 251V651H221V234Q221 200 229 176T255 139T302 126Q331 126 349 139T376 176T385 234V651H539V251Q539 189 525 141T482 58T409 6T302 -12ZM186 697Q152 697 130 719T108 775Q108 808 130
830T186 852Q220 852 241 830T263 775Q263 742 242 720T186 697ZM414 697Q380 697 359 719T337 775Q337 808 358 830T414 852Q448 852 470 830T492 775Q492 742 470 720T414 697Z" />
<glyph unicode="&#xdd;" d="M220 0V218L12 651H183L243 501Q257 464 271 428T299 353H303Q318 392 332 428T361 502L421 651H588L380 218V0H220ZM262 677L191 757L367 899L451 796L262 677Z" />
<glyph unicode="&#xde;" d="M67 0V651H227V555H312Q383 555 441 535T535 469T570 342Q570 264 535 215T440 141T312 117H227V0H67ZM227 244H304Q360 244 387 269T414 342Q414 390 386 409T304 428H227V244Z" />
<glyph unicode="&#xdf;" d="M396 -12Q356 -12 324 -3T258 24L311 131Q333 118 353 112T390 105Q406 105 416 115T426 142Q426 159 415 172T388 196T352 221T317 251T290 291T279 347Q279 377 287 398T306 439T325 479T334 529Q334 553 321 569T287 586Q249 586
232 558T215 482V0H55V491Q55 552 80 602T157 681T287 710Q354 710 397 686T460 622T481 538Q481 503 473 478T454 435T434 401T426 367Q426 353 436 341T463 317T499 293T534 261T562 217T573 155Q573 109 553 71T494 11T396 -12Z" />
<glyph unicode="&#xe0;" d="M220 -12Q169 -12 133 9T78 64T58 140Q58 223 131 267T379 322Q376 342 364 355T331 376T278 384Q256 384 233 379T185 363T131 339L74 444Q111 464 149 479T227 502T309 510Q380 510 431 486T510 411T538 281V0H408L397 54H393Q356
26 312 7T220 -12ZM271 111Q303 111 329 123T379 154V226Q312 224 275 214T224 188T210 153Q210 139 217 130T238 116T271 111ZM323 559L138 717L245 823L401 637L323 559Z" />
<glyph unicode="&#xe1;" d="M220 -12Q169 -12 133 9T78 64T58 140Q58 223 131 267T379 322Q376 342 364 355T331 376T278 384Q256 384 233 379T185 363T131 339L74 444Q111 464 149 479T227 502T309 510Q380 510 431 486T510 411T538 281V0H408L397 54H393Q356
26 312 7T220 -12ZM271 111Q303 111 329 123T379 154V226Q312 224 275 214T224 188T210 153Q210 139 217 130T238 116T271 111ZM317 559L239 637L395 823L502 717L317 559Z" />
<glyph unicode="&#xe2;" d="M220 -12Q169 -12 133 9T78 64T58 140Q58 223 131 267T379 322Q376 342 364 355T331 376T278 384Q256 384 233 379T185 363T131 339L74 444Q111 464 149 479T227 502T309 510Q380 510 431 486T510 411T538 281V0H408L397 54H393Q356
26 312 7T220 -12ZM271 111Q303 111 329 123T379 154V226Q312 224 275 214T224 188T210 153Q210 139 217 130T238 116T271 111ZM191 559L131 616L239 745H401L509 616L449 559L322 647H318L191 559Z" />
<glyph unicode="&#xe3;" d="M220 -12Q169 -12 133 9T78 64T58 140Q58 223 131 267T379 322Q376 342 364 355T331 376T278 384Q256 384 233 379T185 363T131 339L74 444Q111 464 149 479T227 502T309 510Q380 510 431 486T510 411T538 281V0H408L397 54H393Q356
26 312 7T220 -12ZM271 111Q303 111 329 123T379 154V226Q312 224 275 214T224 188T210 153Q210 139 217 130T238 116T271 111ZM385 573Q363 573 344 582T309 602T282 623T258 633Q245 633 237 622T226 582L127 588Q128 642 144 676T188 726T255 742Q278 742 297
733T331 713T358 692T382 683Q395 683 403 694T414 733L513 728Q512 674 496 640T452 589T385 573Z" />
<glyph unicode="&#xe4;" d="M220 -12Q169 -12 133 9T78 64T58 140Q58 223 131 267T379 322Q376 342 364 355T331 376T278 384Q256 384 233 379T185 363T131 339L74 444Q111 464 149 479T227 502T309 510Q380 510 431 486T510 411T538 281V0H408L397 54H393Q356
26 312 7T220 -12ZM271 111Q303 111 329 123T379 154V226Q312 224 275 214T224 188T210 153Q210 139 217 130T238 116T271 111ZM206 567Q169 567 146 592T122 653Q122 688 145 713T207 738Q244 738 268 713T292 653Q292 617 268 592T206 567ZM433 567Q396 567 372
592T348 653Q348 688 372 713T434 738Q471 738 494 713T518 653Q518 617 495 592T433 567Z" />
<glyph unicode="&#xe5;" d="M220 -12Q169 -12 133 9T78 64T58 140Q58 223 131 267T379 322Q376 342 364 355T331 376T278 384Q256 384 233 379T185 363T131 339L74 444Q111 464 149 479T227 502T309 510Q380 510 431 486T510 411T538 281V0H408L397 54H393Q356
26 312 7T220 -12ZM271 111Q303 111 329 123T379 154V226Q312 224 275 214T224 188T210 153Q210 139 217 130T238 116T271 111ZM320 568Q253 568 219 599T184 673Q184 716 218 746T320 777Q388 777 422 747T456 673Q456 630 422 599T320 568ZM320 627Q337 627 349
640T361 673Q361 694 349 706T320 719Q303 719 291 707T279 673Q279 653 291 640T320 627Z" />
<glyph unicode="&#xe6;" d="M149 -12Q90 -12 53 28T16 132Q16 187 43 225T126 287T263 319V226Q223 222 200 211T168 185T158 152Q158 132 169 122T199 111Q213 111 229 119T270 157L313 86Q269 31 230 10T149 -12ZM444 -12Q379 -12 333 20T263 105T238 218V292Q238
348 222 366T181 384Q156 384 134 375T85 350L29 455Q72 481 112 495T193 510Q236 510 267 489T324 414H293Q323 468 358 489T434 510Q486 510 521 477T574 389T592 267Q592 247 590 229T585 201H332V299H494L468 279Q468 340 457 364T420 389Q405 389 390 376T366
332T356 249Q356 202 369 172T403 128T449 113Q468 113 486 119T523 138L577 35Q548 12 511 0T444 -12Z" />
<glyph unicode="&#xe7;" d="M343 -12Q264 -12 201 19T101 108T64 249Q64 332 104 390T211 479T354 510Q414 510 462 492T542 443L469 345Q441 365 416 373T364 382Q324 382 293 366T245 319T228 249Q228 208 244 179T290 133T358 116Q396 116 427 130T485 161L548
61Q503 23 448 6T343 -12ZM236 -242L225 -179Q282 -176 304 -167T326 -136Q326 -121 311 -111T250 -95L302 11H393L362 -61Q401 -69 420 -86T440 -136Q440 -188 386 -213T236 -242Z" />
<glyph unicode="&#xe8;" d="M330 -12Q252 -12 189 19T90 108T53 249Q53 331 90 389T186 478T313 510Q390 510 442 478T521 392T548 270Q548 249 546 230T542 201H172V306H432L409 277Q409 332 386 360T318 389Q283 389 259 374T221 328T207 249Q207 200 223 169T272
124T352 109Q384 109 413 117T476 141L528 46Q485 19 432 4T330 -12ZM314 559L129 717L236 823L392 637L314 559Z" />
<glyph unicode="&#xe9;" d="M330 -12Q252 -12 189 19T90 108T53 249Q53 331 90 389T186 478T313 510Q390 510 442 478T521 392T548 270Q548 249 546 230T542 201H172V306H432L409 277Q409 332 386 360T318 389Q283 389 259 374T221 328T207 249Q207 200 223 169T272
124T352 109Q384 109 413 117T476 141L528 46Q485 19 432 4T330 -12ZM308 559L230 637L386 823L493 717L308 559Z" />
<glyph unicode="&#xea;" d="M330 -12Q252 -12 189 19T90 108T53 249Q53 331 90 389T186 478T313 510Q390 510 442 478T521 392T548 270Q548 249 546 230T542 201H172V306H432L409 277Q409 332 386 360T318 389Q283 389 259 374T221 328T207 249Q207 200 223 169T272
124T352 109Q384 109 413 117T476 141L528 46Q485 19 432 4T330 -12ZM182 559L122 616L230 745H392L500 616L440 559L313 647H309L182 559Z" />
<glyph unicode="&#xeb;" d="M330 -12Q252 -12 189 19T90 108T53 249Q53 331 90 389T186 478T313 510Q390 510 442 478T521 392T548 270Q548 249 546 230T542 201H172V306H432L409 277Q409 332 386 360T318 389Q283 389 259 374T221 328T207 249Q207 200 223 169T272
124T352 109Q384 109 413 117T476 141L528 46Q485 19 432 4T330 -12ZM197 567Q160 567 137 592T113 653Q113 688 136 713T198 738Q235 738 259 713T283 653Q283 617 259 592T197 567ZM424 567Q387 567 363 592T339 653Q339 688 363 713T425 738Q462 738 485 713T509
653Q509 617 486 592T424 567Z" />
<glyph unicode="&#xec;" d="M271 0V373H76V498H431V0H271ZM348 559L163 717L270 823L426 637L348 559Z" />
<glyph unicode="&#xed;" d="M271 0V373H76V498H431V0H271ZM342 559L264 637L420 823L527 717L342 559Z" />
<glyph unicode="&#xee;" d="M271 0V373H76V498H431V0H271ZM216 559L156 616L264 745H426L534 616L474 559L347 647H343L216 559Z" />
<glyph unicode="&#xef;" d="M271 0V373H76V498H431V0H271ZM231 567Q194 567 171 592T147 653Q147 688 170 713T232 738Q269 738 293 713T317 653Q317 617 293 592T231 567ZM458 567Q421 567 397 592T373 653Q373 688 397 713T459 738Q496 738 519 713T543 653Q543
617 520 592T458 567Z" />
<glyph unicode="&#xf0;" d="M295 -12Q226 -12 170 17T79 101T45 229Q45 301 76 352T157 429T264 456Q309 456 349 436T408 365L410 283Q385 314 358 326T297 339Q265 339 241 328T203 292T190 229Q190 192 205 167T245 129T300 116Q331 116 354 131T390 179T404
259Q404 333 388 390T339 493T253 574T129 645L198 742Q269 710 332 668T446 569T524 438T553 268Q553 187 523 124T434 25T295 -12ZM142 469L100 540L479 731L521 659L142 469Z" />
<glyph unicode="&#xf1;" d="M68 0V498H198L209 435H213Q244 465 285 487T383 510Q466 510 504 456T543 307V0H383V287Q383 332 369 353T318 374Q291 374 271 363T228 330V0H68ZM380 573Q358 573 339 582T304 602T277 623T253 633Q240 633 232 622T221 582L122
588Q123 642 139 676T183 726T250 742Q273 742 292 733T326 713T353 692T377 683Q390 683 398 694T409 733L508 728Q507 674 491 640T447 589T380 573Z" />
<glyph unicode="&#xf2;" d="M300 -12Q234 -12 176 19T81 108T44 249Q44 332 80 390T175 479T300 510Q366 510 424 479T519 390T556 249Q556 166 520 108T425 19T300 -12ZM300 116Q331 116 351 132T382 178T392 249Q392 289 382 319T352 365T300 382Q269 382 249
366T218 319T208 249Q208 208 218 179T248 133T300 116ZM303 559L118 717L225 823L381 637L303 559Z" />
<glyph unicode="&#xf3;" d="M300 -12Q234 -12 176 19T81 108T44 249Q44 332 80 390T175 479T300 510Q366 510 424 479T519 390T556 249Q556 166 520 108T425 19T300 -12ZM300 116Q331 116 351 132T382 178T392 249Q392 289 382 319T352 365T300 382Q269 382 249
366T218 319T208 249Q208 208 218 179T248 133T300 116ZM297 559L219 637L375 823L482 717L297 559Z" />
<glyph unicode="&#xf4;" d="M300 -12Q234 -12 176 19T81 108T44 249Q44 332 80 390T175 479T300 510Q366 510 424 479T519 390T556 249Q556 166 520 108T425 19T300 -12ZM300 116Q331 116 351 132T382 178T392 249Q392 289 382 319T352 365T300 382Q269 382 249
366T218 319T208 249Q208 208 218 179T248 133T300 116ZM171 559L111 616L219 745H381L489 616L429 559L302 647H298L171 559Z" />
<glyph unicode="&#xf5;" d="M300 -12Q234 -12 176 19T81 108T44 249Q44 332 80 390T175 479T300 510Q366 510 424 479T519 390T556 249Q556 166 520 108T425 19T300 -12ZM300 116Q331 116 351 132T382 178T392 249Q392 289 382 319T352 365T300 382Q269 382 249
366T218 319T208 249Q208 208 218 179T248 133T300 116ZM365 573Q343 573 324 582T289 602T262 623T238 633Q225 633 217 622T206 582L107 588Q108 642 124 676T168 726T235 742Q258 742 277 733T311 713T338 692T362 683Q375 683 383 694T394 733L493 728Q492
674 476 640T432 589T365 573Z" />
<glyph unicode="&#xf6;" d="M300 -12Q234 -12 176 19T81 108T44 249Q44 332 80 390T175 479T300 510Q366 510 424 479T519 390T556 249Q556 166 520 108T425 19T300 -12ZM300 116Q331 116 351 132T382 178T392 249Q392 289 382 319T352 365T300 382Q269 382 249
366T218 319T208 249Q208 208 218 179T248 133T300 116ZM186 567Q149 567 126 592T102 653Q102 688 125 713T187 738Q224 738 248 713T272 653Q272 617 248 592T186 567ZM413 567Q376 567 352 592T328 653Q328 688 352 713T414 738Q451 738 474 713T498 653Q498
617 475 592T413 567Z" />
<glyph unicode="&#xf7;" d="M300 428Q263 428 238 451T213 510Q213 546 238 568T300 591Q337 591 362 569T387 510Q387 475 362 452T300 428ZM300 68Q263 68 238 91T213 150Q213 186 238 208T300 231Q337 231 362 209T387 150Q387 115 362 92T300 68ZM67 274V386H533V274H67Z"
/>
<glyph unicode="&#xf8;" d="M300 -12Q234 -12 176 19T82 108T45 249Q45 332 81 390T176 479T300 510Q366 510 424 479T518 390T555 249Q555 166 519 108T424 19T300 -12ZM300 111Q332 111 352 128T382 177T392 249Q392 289 382 320T352 369T300 387Q269 387 249
370T218 321T208 249Q208 209 218 178T248 129T300 111ZM120 -27L60 21L480 526L540 479L120 -27Z" />
<glyph unicode="&#xf9;" d="M218 -12Q134 -12 97 43T59 191V498H218V211Q218 166 231 145T283 124Q308 124 327 134T369 174V498H528V0H398L387 69H383Q351 32 312 10T218 -12ZM555 559L370 717L477 823L633 637L555 559Z" />
<glyph unicode="&#xfa;" d="M218 -12Q134 -12 97 43T59 191V498H218V211Q218 166 231 145T283 124Q308 124 327 134T369 174V498H528V0H398L387 69H383Q351 32 312 10T218 -12ZM549 559L471 637L627 823L734 717L549 559Z" />
<glyph unicode="&#xfb;" d="M218 -12Q134 -12 97 43T59 191V498H218V211Q218 166 231 145T283 124Q308 124 327 134T369 174V498H528V0H398L387 69H383Q351 32 312 10T218 -12ZM423 559L363 616L471 745H633L741 616L681 559L554 647H550L423 559Z" />
<glyph unicode="&#xfc;" d="M218 -12Q134 -12 97 43T59 191V498H218V211Q218 166 231 145T283 124Q308 124 327 134T369 174V498H528V0H398L387 69H383Q351 32 312 10T218 -12ZM438 567Q401 567 378 592T354 653Q354 688 377 713T439 738Q476 738 500 713T524
653Q524 617 500 592T438 567ZM665 567Q628 567 604 592T580 653Q580 688 604 713T666 738Q703 738 726 713T750 653Q750 617 727 592T665 567Z" />
<glyph unicode="&#xfd;" d="M145 -191Q123 -191 103 -188T67 -181L95 -60Q105 -63 114 -64T132 -66Q174 -66 197 -50T231 -9L240 15L28 498H185L262 295Q275 260 287 223T309 145H313Q323 182 334 220T358 295L424 498H574L383 1Q358 -63 327 -106T253 -170T145
-191ZM306 559L228 637L384 823L491 717L306 559Z" />
<glyph unicode="&#xfe;" d="M68 -180V698H228V531L222 457H226Q253 482 287 496T357 510Q418 510 462 479T531 391T556 257Q556 171 525 111T445 20T342 -12Q306 -12 277 3T226 40H222L228 -38V-180H68ZM304 118Q327 118 347 131T380 175T392 255Q392 298 383
325T356 366T309 380Q288 380 268 371T228 339V147Q245 131 266 125T304 118Z" />
<glyph unicode="&#xff;" d="M145 -191Q123 -191 103 -188T67 -181L95 -60Q105 -63 114 -64T132 -66Q174 -66 197 -50T231 -9L240 15L28 498H185L262 295Q275 260 287 223T309 145H313Q323 182 334 220T358 295L424 498H574L383 1Q358 -63 327 -106T253 -170T145
-191ZM195 567Q158 567 135 592T111 653Q111 688 134 713T196 738Q233 738 257 713T281 653Q281 617 257 592T195 567ZM422 567Q385 567 361 592T337 653Q337 688 361 713T423 738Q460 738 483 713T507 653Q507 617 484 592T422 567Z" />
<glyph unicode="&#x2013;" d="M80 195V314H520V195H80Z" />
<glyph unicode="&#x2014;" d="M0 195V314H600V195H0Z" />
<glyph unicode="&#x2018;" d="M302 279Q243 279 211 323T179 446Q179 529 224 592T360 696L401 613Q344 588 316 552T287 465L291 366L231 451Q244 462 266 470T306 479Q349 479 375 453T401 384Q401 336 373 308T302 279Z" />
<glyph unicode="&#x2019;" d="M240 279L199 362Q256 387 284 423T312 510L309 609L369 524Q355 513 334 505T293 496Q252 496 225 522T198 591Q198 639 226 667T298 696Q357 696 389 652T421 529Q421 446 376 383T240 279Z" />
<glyph unicode="&#x201a;" d="M240 -232L199 -149Q256 -124 284 -88T312 -1L309 98L369 13Q355 2 334 -6T293 -15Q252 -15 225 11T198 80Q198 128 226 156T298 185Q357 185 389 141T421 18Q421 -65 376 -128T240 -232Z" />
<glyph unicode="&#x201c;" d="M166 279Q107 279 75 323T43 446Q43 529 88 592T224 696L265 613Q208 588 180 552T151 465L155 366L95 451Q108 462 130 470T170 479Q213 479 239 453T265 384Q265 336 237 308T166 279ZM438 279Q379 279 347 323T315 446Q315 529
360 592T496 696L537 613Q480 588 452 552T423 465L427 366L367 451Q380 462 402 470T442 479Q485 479 511 453T537 384Q537 336 509 308T438 279Z" />
<glyph unicode="&#x201d;" d="M104 279L63 362Q120 387 148 423T176 510L173 609L233 524Q219 513 198 505T157 496Q116 496 89 522T62 591Q62 639 90 667T162 696Q221 696 253 652T285 529Q285 446 240 383T104 279ZM376 279L335 362Q392 387 420 423T448 510L445
609L505 524Q491 513 470 505T429 496Q388 496 361 522T334 591Q334 639 362 667T434 696Q493 696 525 652T557 529Q557 446 512 383T376 279Z" />
<glyph unicode="&#x201e;" d="M104 -232L63 -149Q120 -124 148 -88T176 -1L173 98L233 13Q219 2 198 -6T157 -15Q116 -15 89 11T62 80Q62 128 90 156T162 185Q221 185 253 141T285 18Q285 -65 240 -128T104 -232ZM376 -232L335 -149Q392 -124 420 -88T448 -1L445
98L505 13Q491 2 470 -6T429 -15Q388 -15 361 11T334 80Q334 128 362 156T434 185Q493 185 525 141T557 18Q557 -65 512 -128T376 -232Z" />
<glyph unicode="&#x2022;" d="M300 99Q252 99 215 120T155 178T133 262Q133 309 155 345T214 403T300 425Q348 425 385 404T445 346T467 262Q467 215 445 179T386 121T300 99Z" />
<glyph unicode="&#x2039;" d="M345 19L170 172V332L345 485L412 425L284 252L412 79L345 19Z" />
<glyph unicode="&#x203a;" d="M255 19L188 79L316 252L188 425L255 485L430 332V172L255 19Z" />
</font>
</defs>
</svg>
