<?xml version="1.0" standalone="no"?>
<!DOCTYPE svg PUBLIC "-//W3C//DTD SVG 1.1//EN" "http://www.w3.org/Graphics/SVG/1.1/DTD/svg11.dtd">
<svg xmlns="http://www.w3.org/2000/svg">
<defs >
<font id="SourceCodePro" horiz-adv-x="600" ><font-face
    font-family="Source Code Pro ExtraLight"
    units-per-em="1000"
    panose-1="2 11 3 9 3 4 3 9 2 4"
    ascent="984"
    descent="-273"
    alphabetic="0" />
<glyph unicode=" " />
<glyph unicode="!" d="M259 232L316 576L332 671H413L394 576L312 232H259ZM242 -12Q216 -12 200 5T183 50Q183 85 207 111T266 137Q293 137 308 120T324 75Q324 41 300 15T242 -12Z" />
<glyph unicode="&quot;" d="M427 358L448 581L468 687H571L549 581L479 358H427ZM401 358L422 581L442 687H545L523 581L453 358H401Z" />
<glyph unicode="#" d="M78 0L281 650H332L129 0H78ZM273 0L473 650H524L324 0H273ZM123 414L137 465H549L534 414H123ZM64 205L78 256H490L476 205H64Z" />
<glyph unicode="$" d="M273 34Q220 34 179 49T107 88T56 136L105 182Q122 162 146 142T202 110T278 97Q335 97 371 120T407 189Q407 215 392 233T348 268T283 303Q241 324 209 346T160 396T142 465Q142 518 167 552T235 602T333 618Q377 618 414 603T479 566T523
521L475 479Q449 511 412 533T327 555Q279 555 248 535T216 474Q216 439 243 415T329 363Q371 343 405 321T461 270T482 197Q482 140 453 104T376 51T273 34ZM322 589L353 748H409L377 589H322ZM191 -110L225 60H281L247 -110H191Z" />
<glyph unicode="%" d="M107 321Q58 321 25 354T-9 448Q-9 506 14 551T77 623T166 650Q216 650 249 617T282 523Q282 466 259 421T196 348T107 321ZM116 368Q144 368 168 387T207 441T223 518Q223 561 206 582T158 603Q130 603 106 584T66 530T50 453Q50 411 68
390T116 368ZM8 29L-28 72L192 262L217 233L8 29ZM393 390L368 418L576 621L613 578L393 390ZM375 -12Q326 -12 293 21T259 115Q259 173 282 218T345 290T434 317Q484 317 517 284T550 190Q550 133 527 88T464 15T375 -12ZM384 35Q412 35 436 54T475 108T491 185Q491
228 474 249T426 270Q398 270 374 251T334 197T318 120Q318 78 336 57T384 35Z" />
<glyph unicode="&amp;" d="M182 -12Q109 -12 64 29T19 139Q19 195 45 236T112 310T199 369T287 423T354 483T380 558Q380 580 369 597T331 614Q303 614 280 597T243 549T229 480Q229 421 253 357T318 234T407 128Q438 98 472 79T532 50L501 -12Q468 -1 429 22T353
81Q302 131 259 198T189 338T162 476Q162 532 185 575T248 643T335 668Q389 668 416 638T443 561Q443 510 418 471T353 402T269 343T184 287T119 226T94 149Q94 102 122 76T196 49Q237 49 280 70T360 126Q407 172 442 228T506 349H577Q543 274 501 209T406 89Q360
42 303 15T182 -12Z" />
<glyph unicode="&apos;" d="M286 358L307 581L327 687H430L408 581L338 358H286Z" />
<glyph unicode="(" d="M344 -176Q275 -113 236 -20T197 183Q197 303 236 405T349 590T524 734L560 687Q406 586 336 460T266 185Q266 90 298 9T396 -135L344 -176Z" />
<glyph unicode=")" d="M73 -185L36 -138Q192 -37 260 89T328 363Q328 460 297 540T199 685L248 724Q317 661 357 568T397 365Q397 186 311 46T73 -185Z" />
<glyph unicode="*" d="M143 118L109 147L242 309L101 381L123 421L276 368L322 549H368L344 365L515 420L527 378L354 303L431 135L389 111L294 268L143 118Z" />
<glyph unicode="+" d="M269 105V301H87V359H269V555H331V359H513V301H331V105H269Z" />
<glyph unicode="," d="M105 -203L94 -158Q166 -137 209 -94T261 7L272 65L298 21Q290 12 276 6T245 -1Q220 -1 203 16T185 63Q185 87 197 107T229 138T273 150Q304 150 322 127T341 60Q341 -4 311 -58T227 -149T105 -203Z" />
<glyph unicode="-" d="M87 301V359H513V301H87Z" />
<glyph unicode="." d="M239 -12Q211 -12 194 7T176 56Q176 81 188 102T220 137T266 151Q295 151 312 132T329 82Q329 58 317 37T285 2T239 -12Z" />
<glyph unicode="/" d="M12 -160L513 710H585L84 -160H12Z" />
<glyph unicode="0" d="M253 -12Q192 -12 149 18T82 104T59 234Q59 293 71 352T107 465T166 560T247 626T349 650Q411 650 454 619T520 532T543 402Q543 343 531 284T495 172T437 78T356 12T253 -12ZM260 49Q301 49 334 70T392 126T436 207T462 300T471 395Q471
484 440 536T343 588Q302 588 269 568T211 511T167 430T140 337T131 242Q131 153 163 101T260 49ZM296 260Q273 260 260 275T246 316Q246 349 265 372T310 395Q333 395 346 380T360 339Q360 307 341 284T296 260Z" />
<glyph unicode="1" d="M39 0L53 64H236L332 542H191L201 592Q254 598 297 609T370 638H428L312 64H483L471 0H39Z" />
<glyph unicode="2" d="M37 0L44 46Q139 125 210 186T329 298T401 394T425 484Q425 531 400 559T319 587Q275 587 234 563T158 502L117 548Q160 592 212 621T331 650Q411 650 455 607T500 491Q500 440 477 392T410 294T304 187T162 62Q197 65 225 65T282 66H496L484 0H37Z" />
<glyph unicode="3" d="M247 -12Q197 -12 157 2T84 41T30 96L80 137Q97 115 120 96T176 64T248 52Q293 52 329 67T386 110T408 180Q408 217 389 243T325 285T207 301L217 359Q297 359 345 377T416 426T438 494Q438 539 408 563T327 587Q283 587 246 570T175 526L138
574Q178 608 229 629T339 650Q391 650 431 633T493 585T516 508Q516 441 477 396T350 330V327Q417 311 450 275T484 183Q484 120 453 77T368 11T247 -12Z" />
<glyph unicode="4" d="M318 0L406 448Q412 476 419 505T432 559H429Q409 536 389 513T348 466L122 240H537L524 178H20L30 229L434 638H516L389 0H318Z" />
<glyph unicode="5" d="M243 -12Q193 -12 152 2T78 41T23 96L73 138Q91 115 115 95T172 64T245 52Q290 52 330 71T396 127T422 220Q422 281 389 312T296 343Q267 343 244 338T197 324T148 301L113 328L188 638H538L526 572H243L193 372Q222 385 252 393T322 402Q373
402 413 385T476 330T499 233Q499 175 478 130T422 53T340 5T243 -12Z" />
<glyph unicode="6" d="M273 -12Q212 -12 165 16T92 97T65 219Q65 326 91 406T164 541T268 622T390 650Q428 650 460 639T516 609T557 565L507 524Q483 558 453 572T385 586Q340 586 297 564T217 498T159 383T137 217Q137 135 177 92T278 48Q326 48 361 72T417
136T437 219Q437 262 421 288T379 327T320 340Q269 340 222 313T132 232L136 292Q158 321 190 345T260 382T338 396Q383 396 421 379T484 325T508 228Q508 179 491 136T442 59T367 7T273 -12Z" />
<glyph unicode="7" d="M154 0Q177 98 206 177T273 324T361 454T479 579L491 572H114L127 638H578L568 589Q506 531 460 478T380 373T321 263T276 142T237 0H154Z" />
<glyph unicode="8" d="M264 -12Q206 -12 161 6T90 61T63 149Q63 197 82 233T137 296T221 343V347Q190 378 172 409T154 480Q154 534 181 572T254 630T356 650Q404 650 443 634T506 585T530 505Q530 441 496 396T402 321V317Q420 304 441 286T477 239T493 174Q493
116 464 75T383 11T264 -12ZM358 343Q405 368 434 406T463 493Q463 525 448 547T407 580T350 592Q316 592 287 580T241 543T223 485Q223 452 242 427T292 381T358 343ZM268 46Q309 46 344 59T400 98T422 164Q422 192 408 213T371 252T319 286T259 318Q202 289 167
253T132 162Q132 123 151 98T202 59T268 46Z" />
<glyph unicode="9" d="M212 -12Q173 -12 142 -1T85 29T44 73L95 114Q119 81 149 67T217 52Q261 52 305 73T385 140T442 255T464 421Q464 503 424 546T324 590Q276 590 240 566T184 502T164 419Q164 377 180 350T223 311T281 298Q333 298 380 325T469 406L466 346Q443
316 411 293T341 256T263 242Q219 242 180 259T117 314T93 410Q93 460 110 503T160 579T234 631T328 650Q389 650 436 622T510 541T536 419Q536 312 510 232T437 97T333 15T212 -12Z" />
<glyph unicode=":" d="M309 346Q281 346 264 365T246 414Q246 439 258 460T290 495T336 509Q365 509 382 490T399 440Q399 416 387 395T355 360T309 346ZM239 -12Q211 -12 194 7T176 56Q176 81 188 102T220 137T266 151Q295 151 312 132T329 82Q329 58 317 37T285
2T239 -12Z" />
<glyph unicode=";" d="M309 346Q281 346 264 365T246 414Q246 439 258 460T290 495T336 509Q365 509 382 490T399 440Q399 416 387 395T355 360T309 346ZM105 -203L94 -158Q166 -137 209 -94T261 7L272 65L298 21Q290 12 276 6T245 -1Q220 -1 203 16T185 63Q185
87 197 107T229 138T273 150Q304 150 322 127T341 60Q341 -4 311 -58T227 -149T105 -203Z" />
<glyph unicode="&lt;" d="M493 49L121 302V362L493 615V539L188 334V330L493 125V49Z" />
<glyph unicode="=" d="M87 408V466H513V408H87ZM87 450V508H513V450H87Z" />
<glyph unicode="&gt;" d="M107 49V125L412 330V334L107 539V615L479 362V302L107 49Z" />
<glyph unicode="?" d="M226 232Q226 277 244 309T290 366T347 415Q373 435 394 453T429 492T442 540Q442 574 421 596T353 618Q311 618 279 600T217 549L174 588Q210 631 257 656T366 682Q413 682 447 667T500 623T519 556Q519 512 500 481T452 425T391 376Q363
353 341 333T306 290T291 232H226ZM223 -12Q197 -12 181 5T164 50Q164 85 188 111T247 137Q274 137 289 120T305 75Q305 41 281 15T223 -12Z" />
<glyph unicode="@" d="M273 -144Q199 -144 144 -110T57 -10T26 150Q26 261 55 350T136 503T254 601T393 635Q485 635 528 591T571 470Q571 452 569 434T563 396L504 100H459L464 159H460Q431 129 396 109T318 88Q273 88 240 114T206 191Q206 276 279 322T506 386Q517
435 517 461Q517 517 488 550T387 584Q332 584 279 555T182 469T112 335T85 158Q85 78 110 22T179 -63T281 -92Q320 -92 353 -79T415 -44L440 -88Q407 -113 365 -128T273 -144ZM338 140Q368 140 399 157T467 209L494 340Q373 323 320 290T267 204Q267 172 287 156T338
140Z" />
<glyph unicode="A" d="M-23 0L333 656H422L503 0H423L386 377Q381 430 377 484T366 591H362Q334 537 309 486T256 379L62 0H-23ZM137 205L152 265H440L429 205H137Z" />
<glyph unicode="B" d="M41 0L173 656H343Q409 656 454 640T523 591T547 511Q547 467 526 433T471 377T400 347V343Q434 335 461 318T504 275T520 210Q520 137 485 91T388 22T248 0H41ZM194 378H284Q377 378 422 411T467 500Q467 545 435 567T324 590H238L194 378ZM132
66H242Q304 66 349 79T419 124T444 206Q444 256 406 284T294 312H182L132 66Z" />
<glyph unicode="C" d="M310 -12Q235 -12 183 21T104 114T77 253Q77 315 93 375T138 488T209 581T303 645T416 668Q472 668 512 641T578 571L523 530Q504 563 477 582T412 601Q365 601 326 582T255 528T201 449T168 357T157 260Q157 200 174 154T228 82T324 55Q363
55 397 71T463 114L499 64Q474 43 446 26T384 -1T310 -12Z" />
<glyph unicode="D" d="M22 0L153 656H284Q418 656 487 589T557 400Q557 311 533 238T463 111T350 29T199 0H22ZM112 64H199Q286 64 348 104T443 219T477 395Q477 490 427 541T281 593H218L112 64Z" />
<glyph unicode="E" d="M60 0L192 656H595L582 591H255L213 378H486L473 312H201L150 66H486L473 0H60Z" />
<glyph unicode="F" d="M79 0L210 656H609L595 591H274L229 363H497L483 297H217L157 0H79Z" />
<glyph unicode="G" d="M300 -12Q222 -12 169 21T89 113T61 253Q61 331 85 405T154 538T262 633T406 668Q465 668 506 641T571 571L516 530Q497 562 470 581T401 601Q353 601 312 582T240 528T186 449T153 357T141 260Q141 202 158 156T212 82T311 54Q347 54 375
66T423 94L459 275H324L337 339H543L486 55Q450 25 403 7T300 -12Z" />
<glyph unicode="H" d="M18 0L149 656H227L171 379H455L510 656H588L457 0H379L442 312H158L96 0H18Z" />
<glyph unicode="I" d="M35 0L49 66H211L316 591H152L167 656H573L559 591H394L288 66H454L439 0H35Z" />
<glyph unicode="J" d="M209 -12Q142 -12 96 18T23 90L75 136Q99 99 132 77T212 55Q282 55 321 97T377 227L450 591H175L188 656H540L451 211Q437 141 407 91T328 14T209 -12Z" />
<glyph unicode="K" d="M618 656L162 212L119 0H42L173 656H251L182 319H186L530 656H618ZM281 350L338 409L519 0H432L281 350Z" />
<glyph unicode="L" d="M99 0L230 656H308L190 66H515L502 0H99Z" />
<glyph unicode="M" d="M15 0L146 656H240L278 359L284 262H288L332 358L496 656H589L459 0H386L464 386Q468 405 474 428T487 476T500 525T513 568H509Q504 557 492 534T467 486T444 441L304 178H240L206 436Q205 444 203 462T199 501T196 541T192 568H188Q185
539 182 506T174 443T166 394L86 0H15Z" />
<glyph unicode="N" d="M25 0L156 656H235L369 234L406 99H410Q413 123 416 150T424 204T432 255T440 301L510 656H584L453 0H375L240 422L203 558H199Q195 525 190 489T180 418T168 351L99 0H25Z" />
<glyph unicode="O" d="M254 -12Q187 -12 140 20T67 111T41 247Q41 310 55 371T96 485T161 580T248 644T355 668Q422 668 469 636T542 546T567 409Q567 346 553 286T513 171T448 76T361 12T254 -12ZM261 55Q304 55 339 75T403 131T449 213T478 310T488 413Q488
470 473 512T427 578T348 601Q305 601 270 581T206 525T160 443T131 346T120 244Q120 186 135 144T182 78T261 55Z" />
<glyph unicode="P" d="M52 0L183 656H366Q428 656 474 640T547 588T573 496Q573 436 552 392T493 320T403 278T287 264H182L129 0H52ZM195 327H287Q390 327 442 367T495 486Q495 543 457 568T346 594H247L195 327Z" />
<glyph unicode="Q" d="M254 -12Q187 -12 140 20T67 111T41 247Q41 310 55 371T96 485T161 580T248 644T355 668Q422 668 469 636T542 546T567 409Q567 346 553 286T513 171T448 76T361 12T254 -12ZM262 51Q304 51 339 71T403 127T449 209T478 308T488 413Q488
470 473 512T427 578T348 601Q305 601 270 581T206 525T160 443T131 346T120 244Q120 184 135 141T182 75T262 51ZM398 -164Q325 -164 272 -121T201 16L278 12Q287 -43 321 -71T406 -99Q432 -99 451 -95T486 -86L500 -147Q482 -154 456 -159T398 -164Z" />
<glyph unicode="R" d="M35 0L166 656H343Q405 656 451 641T524 591T550 501Q550 446 529 405T471 336T386 293T284 278H168L112 0H35ZM181 341H276Q370 341 420 382T471 493Q471 548 435 571T325 594H230L181 341ZM274 290L341 322L473 0H387L274 290Z" />
<glyph unicode="S" d="M261 -12Q183 -12 127 20T37 106L90 149Q121 104 163 80T261 55Q303 55 335 70T386 112T405 177Q405 214 383 240T324 287L248 332Q206 357 174 396T142 492Q142 542 167 582T238 645T343 668Q407 668 457 640T537 571L485 528Q462 558 425
580T339 602Q304 602 278 588T236 550T221 498Q221 461 244 437T298 394L377 347Q408 327 432 305T470 253T484 184Q484 122 455 79T374 12T261 -12Z" />
<glyph unicode="T" d="M198 0L316 589H98L111 656H625L611 589H393L276 0H198Z" />
<glyph unicode="U" d="M255 -12Q163 -12 114 41T64 186Q64 210 66 231T74 279L149 656H227L152 277Q146 254 144 234T141 195Q141 129 172 92T265 55Q303 55 335 73T392 135T432 252L512 656H588L506 244Q487 148 451 93T365 13T255 -12Z" />
<glyph unicode="V" d="M188 0L122 656H202L233 292Q237 239 241 185T250 76H254Q270 110 289 148T326 224T361 292L547 656H632L281 0H188Z" />
<glyph unicode="W" d="M54 0L94 657H168L134 204Q132 174 129 146T124 98T119 67H123Q126 75 133 94T150 137T168 179T179 206L298 474H364L383 250Q385 227 387 194T392 127T395 71H401Q403 78 407 97T416 140T427 182T434 209L568 657H642L438 0H342L324 266Q322
295 320 331T318 391H313Q306 367 294 331T268 266L154 0H54Z" />
<glyph unicode="X" d="M-4 0L257 344L130 657H214L282 485Q290 464 299 436T315 386H319Q335 410 354 439T384 484L516 657H602L351 332L487 0H403L331 182Q326 194 320 212T306 249T294 283H290Q271 256 253 230T219 181L82 0H-4Z" />
<glyph unicode="Y" d="M199 0L246 229L109 657H189L250 455Q262 415 274 371T295 292H299Q312 313 329 341T366 398T404 455L544 657H626L321 221L276 0H199Z" />
<glyph unicode="Z" d="M115 43L93 65H498L484 0H17L26 46L493 621L521 592H127L140 657H586L576 610L115 43Z" />
<glyph unicode="[" d="M127 -152L300 708H571L563 663H350L196 -107H408L400 -152H127Z" />
<glyph unicode="\" d="M344 -160L191 710H254L407 -160H344Z" />
<glyph unicode="]" d="M15 -152L24 -107H237L390 663H178L187 708H459L287 -152H15Z" />
<glyph unicode="^" d="M113 285L266 670H334L487 285H419L351 465L302 597H298L249 465L181 285H113Z" />
<glyph unicode="_" d="M-28 -137L-15 -71H465L452 -137H-28Z" />
<glyph unicode="`" d="M389 570L257 734L323 783L437 606L389 570Z" />
<glyph unicode="a" d="M219 -12Q143 -12 98 35T52 174Q52 240 72 298T130 401T215 472T319 498Q371 498 409 478T468 425H472L491 486H553L456 0H393L401 74H397Q359 35 313 12T219 -12ZM242 52Q282 52 325 76T409 146L454 362Q429 401 396 417T329 434Q288 434
252 414T188 359T146 279T131 186Q131 118 161 85T242 52Z" />
<glyph unicode="b" d="M270 -12Q222 -12 183 9T121 61H118L100 0H36L178 712H255L216 522L190 415H193Q230 449 276 473T370 498Q448 498 492 448T537 305Q537 240 517 182T461 81T376 13T270 -12ZM262 52Q305 52 340 71T402 123T443 201T458 294Q458 365 428
399T345 434Q308 434 264 409T181 340L137 122Q163 84 195 68T262 52Z" />
<glyph unicode="c" d="M291 -12Q227 -12 177 12T97 83T67 202Q67 269 91 323T156 416T250 476T360 498Q424 498 470 472T543 411L494 367Q467 401 433 417T350 434Q313 434 276 417T209 370T162 299T144 211Q144 131 188 92T301 52Q344 52 383 71T456 119L487
67Q449 32 397 10T291 -12Z" />
<glyph unicode="d" d="M218 -12Q143 -12 98 35T52 174Q52 240 72 298T130 401T215 472T319 498Q371 498 408 479T466 427H469L485 522L523 712H600L456 0H393L401 74H397Q359 35 313 12T218 -12ZM242 52Q282 52 325 76T409 146L453 362Q429 401 396 417T329 434Q288
434 252 414T188 359T146 279T131 186Q131 118 161 85T242 52Z" />
<glyph unicode="e" d="M270 -12Q207 -12 161 12T89 83T63 198Q63 264 85 318T146 413T235 476T340 498Q429 498 477 445T525 311Q525 286 521 260T512 224H122L132 284H479L447 269Q450 280 451 291T453 314Q453 371 422 404T336 437Q301 437 266 420T203 372T157
298T139 202Q139 153 157 119T208 67T285 49Q333 49 375 67T451 112L480 60Q443 31 389 10T270 -12Z" />
<glyph unicode="f" d="M169 0L278 540Q298 637 352 680T489 724Q534 724 569 710T630 675L593 626Q571 643 547 652T491 662Q440 662 404 634T354 537L246 0H169ZM115 424L126 481L268 486H548L535 424H115Z" />
<glyph unicode="g" d="M201 -217Q141 -217 95 -200T16 -157L52 -102Q81 -127 121 -140T202 -154Q245 -154 281 -141T343 -98T379 -21L401 82H397Q362 48 317 26T224 4Q147 4 101 51T55 186Q55 250 75 306T132 406T217 473T319 498Q371 498 409 478T468 425H472L492
486H553L451 -25Q438 -92 402 -135T314 -197T201 -217ZM247 68Q287 68 329 90T409 154L453 361Q428 400 396 417T328 434Q289 434 254 415T192 364T150 289T134 198Q134 132 164 100T247 68Z" />
<glyph unicode="h" d="M36 0L178 712H255L202 450L186 389H190Q220 418 253 443T324 483T405 498Q469 498 499 465T530 377Q530 356 528 337T521 297L461 0H384L442 289Q447 308 449 324T451 357Q451 393 432 412T374 432Q325 432 275 401T175 314L112 0H36Z" />
<glyph unicode="i" d="M347 -12Q289 -12 253 19T216 110Q216 122 218 135T224 163L282 424H104L117 486H371L298 156Q297 147 296 140T294 124Q294 86 315 69T369 52Q392 52 414 59T462 78L480 20Q449 6 418 -3T347 -12ZM598 589Q575 589 558 603T541 642Q541
661 550 677T576 702T610 711Q637 711 652 697T668 658Q668 629 648 609T598 589Z" />
<glyph unicode="j" d="M122 -217Q76 -217 40 -203T-18 -173L15 -118Q37 -134 62 -144T121 -154Q186 -154 220 -117T267 -14L355 424H131L145 486H444L344 -15Q324 -112 273 -164T122 -217ZM415 589Q392 589 375 603T358 642Q358 661 367 677T393 702T427 711Q454
711 469 697T485 658Q485 629 465 609T415 589Z" />
<glyph unicode="k" d="M49 0L192 712H268L171 228H175L492 486H585L331 270L152 128L126 0H49ZM296 257L348 308L509 0H429L296 257Z" />
<glyph unicode="l" d="M325 -12Q269 -12 232 20T195 117Q195 130 196 142T202 171L303 650H141L154 712H391L277 168Q275 157 274 146T272 124Q272 87 292 70T346 52Q370 52 392 59T441 79L460 20Q428 4 395 -4T325 -12Z" />
<glyph unicode="m" d="M0 0L97 486H156L149 420H152Q181 457 213 477T283 498Q317 498 336 479T356 415L344 404Q382 455 419 476T492 498Q527 498 547 478T568 413Q568 400 567 388T562 358L490 0H414L484 348Q486 360 487 369T488 386Q488 411 480 421T454 432Q428
432 404 412T353 352L282 0H208L280 348Q282 360 283 369T284 386Q284 411 275 421T249 432Q221 432 198 412T145 352L76 0H0Z" />
<glyph unicode="n" d="M36 0L133 486H195L183 387H187Q216 416 250 441T322 482T405 498Q469 498 499 465T530 377Q530 356 528 337T521 297L461 0H384L442 289Q447 308 449 324T451 357Q451 393 432 412T374 432Q325 432 275 401T175 314L112 0H36Z" />
<glyph unicode="o" d="M250 -12Q186 -12 141 15T71 90T46 201Q46 265 68 319T130 413T219 476T326 498Q389 498 434 471T504 396T529 285Q529 222 507 168T445 73T356 11T250 -12ZM255 52Q294 52 329 70T392 119T436 191T452 280Q452 351 417 392T320 434Q282
434 247 416T184 367T140 295T124 206Q124 135 159 94T255 52Z" />
<glyph unicode="p" d="M-5 -205L133 486H196L188 411H191Q229 447 274 472T371 498Q447 498 492 448T537 305Q537 217 504 145T410 31T270 -12Q224 -12 186 8T123 58H120L102 -46L71 -205H-5ZM265 52Q307 52 342 71T403 123T443 201T458 294Q458 365 428 399T345
434Q308 434 265 409T181 340L137 122Q163 84 196 68T265 52Z" />
<glyph unicode="q" d="M339 -205L372 -44Q375 -30 379 -10T390 32T402 74H398Q360 35 313 12T218 -12Q143 -12 98 35T52 174Q52 240 72 298T130 401T215 472T319 498Q371 498 409 478T468 425H472L492 486H553L415 -205H339ZM242 52Q282 52 325 76T409 146L453
362Q429 401 396 417T329 434Q288 434 252 414T188 359T146 279T131 186Q131 118 161 85T242 52Z" />
<glyph unicode="r" d="M97 0L194 486H257L236 347H240Q267 388 301 422T375 477T457 498Q490 498 514 492T555 473L525 407Q507 419 488 423T444 428Q388 428 332 380T224 253L173 0H97Z" />
<glyph unicode="s" d="M270 -12Q228 -12 188 -1T113 30T55 77L99 126Q135 86 183 67T284 48Q335 48 368 66T402 125Q402 149 387 164T344 192T274 218Q198 243 163 276T128 360Q128 407 153 437T219 483T310 498Q380 498 431 474T513 419L470 372Q440 398 399
418T302 438Q255 438 228 420T201 369Q201 335 232 316T321 277Q366 262 401 244T455 200T475 135Q475 83 448 51T374 3T270 -12Z" />
<glyph unicode="t" d="M307 -12Q231 -12 195 26T159 127Q159 143 161 158T167 190L215 424H74L85 481L231 486L267 620H332L304 486H544L531 424H291L242 188Q239 175 238 165T237 143Q237 97 261 75T327 52Q363 52 395 62T453 87L478 32Q447 13 403 1T307 -12Z" />
<glyph unicode="u" d="M182 -12Q117 -12 87 21T56 109Q56 131 58 150T65 189L125 486H201L143 197Q140 179 137 163T134 129Q134 93 154 74T211 54Q260 54 310 85T409 172L472 486H549L452 0H389L402 99H398Q368 70 335 45T263 4T182 -12Z" />
<glyph unicode="v" d="M197 0L87 486H163L224 203Q232 168 238 132T252 60H256Q273 95 294 131T337 204L504 486H582L287 0H197Z" />
<glyph unicode="w" d="M58 0L46 486H122L125 199Q125 165 125 133T123 66H127Q140 101 151 133T178 200L290 460H368L378 200Q380 165 379 133T378 66H382Q396 101 407 132T432 199L548 486H622L419 0H322L316 250Q315 285 315 315T316 382H312Q303 356 296 335T282
294T264 250L158 0H58Z" />
<glyph unicode="x" d="M10 0L244 253L119 486H199L257 375Q266 358 277 334T296 292H300Q312 308 332 334T365 375L464 486H554L331 246L470 0H388L324 117Q315 135 303 159T280 201H275Q266 189 254 175T230 146T208 121L100 0H10Z" />
<glyph unicode="y" d="M33 -209Q11 -209 -9 -204T-44 -191L-20 -136Q-8 -142 7 -146T38 -150Q68 -150 90 -140T133 -108T178 -50L208 -2L87 486H161L225 214Q232 182 240 141T254 66H258Q275 99 298 140T340 214L503 486H583L252 -52Q220 -105 189 -140T120 -192T33
-209Z" />
<glyph unicode="z" d="M34 0L42 46L422 425H113L126 486H536L528 440L149 62H476L463 0H34Z" />
<glyph unicode="{" d="M310 -152Q254 -152 222 -131T189 -62Q189 -36 197 -2T216 68T235 135T244 187Q244 204 235 219T197 243T111 253L123 303Q184 303 217 315T265 345T283 382Q290 414 294 444T302 507T314 573Q330 651 373 679T481 708H583L574 663H491Q448
663 417 640T375 569Q367 526 360 481T345 389Q335 340 311 312T242 277V273Q275 268 289 248T304 202Q304 178 297 145T279 75T261 7T253 -48Q253 -78 276 -92T340 -107H421L411 -152H310Z" />
<glyph unicode="|" d="M265 -250V750H335V-250H265Z" />
<glyph unicode="}" d="M9 -152L18 -107H101Q145 -107 176 -84T217 -13Q226 30 232 75T247 167Q258 216 282 244T350 279L351 283Q317 288 303 308T288 354Q288 379 295 412T313 481T331 549T339 604Q339 634 317 648T252 663H171L181 708H282Q338 708 370 687T403
618Q403 592 395 558T376 488T357 421T348 369Q348 353 357 338T395 313T481 303L469 253Q408 253 375 241T327 211T309 174Q302 142 298 112T290 49T278 -17Q262 -95 219 -123T111 -152H9Z" />
<glyph unicode="~" d="M388 258Q359 258 335 271T291 301T251 330T210 343Q195 343 181 336T153 311T128 257L78 278Q104 348 139 375T212 402Q242 402 265 389T309 359T349 330T390 317Q406 317 420 323T447 348T472 403L522 381Q496 312 461 285T388 258Z" />
<glyph unicode="&#xa0;" />
<glyph unicode="&#xa1;" d="M316 253L259 -91L243 -186H162L181 -91L263 253H316ZM333 497Q359 497 375 480T392 435Q392 400 368 374T309 348Q282 348 267 365T251 410Q251 444 275 470T333 497Z" />
<glyph unicode="&#xa2;" d="M284 71Q230 71 188 94T123 160T99 262Q99 352 138 416T242 515T380 549Q428 549 463 529T521 482L476 438Q456 460 432 473T372 486Q318 486 273 458T202 381T176 271Q176 207 209 172T301 136Q342 136 375 152T436 190L467 141Q430
110 384 91T284 71ZM231 -36L373 653H420L280 -36H231Z" />
<glyph unicode="&#xa3;" d="M22 0L31 46Q116 84 155 139T194 262Q194 302 187 351T180 439Q180 507 207 554T281 625T390 650Q447 650 488 625T555 561L503 521Q484 551 457 569T389 588Q328 588 290 551T252 433Q252 398 257 355T264 273Q264 204 237 156T154
70V65H469L456 0H22ZM75 289L85 334L190 338H448L438 289H75Z" />
<glyph unicode="&#xa4;" d="M65 84L24 128L123 211Q115 228 111 249T106 293Q106 339 122 378T167 448L101 531L152 575L220 488Q246 505 277 514T341 524Q370 524 397 515T444 488L546 574L584 527L482 442Q498 408 498 364Q498 319 482 279T437 208L505 120L455
78L385 170Q358 154 328 145T263 135Q235 135 209 143T162 169L65 84ZM274 193Q314 193 348 214T405 272T427 357Q427 408 401 438T331 468Q292 468 257 446T199 387T177 302Q177 253 202 223T274 193Z" />
<glyph unicode="&#xa5;" d="M202 0L257 280L124 638H201L260 462Q271 429 282 395T303 323H306Q328 357 352 393T399 462L528 638H610L332 276L279 0H202ZM50 159L60 200H503L493 159H50ZM72 270L82 311H524L515 270H72Z" />
<glyph unicode="&#xa6;" d="M265 -250V190H335V-250H265ZM265 310V750H335V310H265Z" />
<glyph unicode="&#xa7;" d="M234 -58Q187 -58 144 -37T65 22L107 70Q133 41 166 22T235 2Q274 2 301 23T329 79Q329 105 314 123T276 156T224 186Q174 214 142 248T109 337Q109 377 128 407T178 457T246 491L276 452Q236 438 207 415T177 349Q177 313 199 290T268
241Q293 226 316 212T358 179T388 139T399 87Q399 21 352 -18T234 -58ZM361 135L325 177Q369 190 396 212T423 278Q423 320 395 345T329 394Q295 414 266 434T220 480T202 548Q202 589 221 619T275 667T354 684Q399 684 436 662T503 607L457 565Q437 591 412 607T352
624Q319 624 296 606T273 554Q273 519 299 498T368 450Q399 432 427 410T473 360T492 290Q492 247 476 219T431 170T361 135Z" />
<glyph unicode="&#xa8;" d="M267 589Q248 589 236 600T224 633Q224 658 240 675T280 693Q299 693 311 681T323 648Q323 623 307 606T267 589ZM453 589Q434 589 422 600T410 633Q410 658 426 675T466 693Q485 693 497 681T509 648Q509 623 493 606T453 589Z" />
<glyph unicode="&#xa9;" d="M235 -11Q172 -11 125 20T51 110T25 246Q25 336 51 411T125 540T234 624T370 653Q434 653 481 622T555 535T581 400Q581 310 555 235T483 105T373 20T235 -11ZM243 30Q305 30 358 57T451 135T513 251T536 395Q536 494 491 553T361 613Q300
613 248 586T155 510T92 395T70 250Q70 150 115 90T243 30ZM280 129Q223 129 189 169T154 280Q154 353 183 405T258 486T356 514Q392 514 415 499T455 459L418 427Q404 446 389 455T351 464Q317 464 286 441T236 377T216 283Q216 236 235 209T291 182Q318 181 339
192T380 220L405 180Q381 158 349 144T280 129Z" />
<glyph unicode="&#xaa;" d="M283 387Q234 387 206 419T177 513Q177 578 203 625T272 698T363 724Q391 724 412 714T452 685H454L465 716H513L449 395H399L402 433H400Q377 415 348 401T283 387ZM311 436Q333 436 357 447T407 479L438 643Q421 659 403 666T363
674Q332 674 304 655T258 602T239 522Q239 482 257 459T311 436Z" />
<glyph unicode="&#xab;" d="M445 52L326 222L338 286L522 449L552 415L401 247L487 82L445 52ZM419 52L300 222L312 286L496 449L526 415L375 247L461 82L419 52Z" />
<glyph unicode="&#xac;" d="M451 105V301H87V359H513V105H451Z" />
<glyph unicode="&#xad;" d="M87 301V359H513V301H87Z" />
<glyph unicode="&#xae;" d="M311 320Q267 320 232 340T178 397T158 480Q158 548 188 600T270 683T389 713Q433 713 467 693T521 637T541 552Q541 485 512 433T431 350T311 320ZM318 354Q370 354 412 379T478 448T503 547Q503 609 470 644T382 680Q331 680 288
654T220 584T195 485Q195 424 229 389T318 354ZM258 417L298 621H373Q400 621 419 609T439 564Q439 530 413 509T343 488H298L305 517H344Q369 517 383 528T397 561Q397 574 389 582T361 590H324L332 596L297 417H258ZM346 492L382 500L419 417H377L346 492Z" />
<glyph unicode="&#xaf;" d="M231 601L241 655H496L486 601H231Z" />
<glyph unicode="&#xb0;" d="M323 432Q280 432 251 460T221 535Q221 581 242 614T297 666T372 685Q417 685 445 658T474 581Q474 536 454 503T399 451T323 432ZM331 475Q371 475 398 504T426 576Q426 606 411 624T365 643Q325 643 298 613T270 542Q270 513 286
494T331 475Z" />
<glyph unicode="&#xb1;" d="M269 125V305H87V363H269V555H331V363H513V305H331V125H269ZM87 0V59H513V0H87Z" />
<glyph unicode="&#xb2;" d="M182 395L189 433Q271 490 321 532T396 611T420 683Q420 712 405 728T356 745Q335 745 315 732T275 698L240 734Q268 761 298 779T365 797Q418 797 449 769T481 692Q481 650 459 613T394 535T286 446H449L439 395H182Z" />
<glyph unicode="&#xb3;" d="M316 383Q267 383 233 406T181 463L223 491Q237 466 258 449T313 432Q348 432 373 450T398 503Q398 533 373 554T291 575L300 616Q345 616 371 627T408 657T419 693Q419 718 403 733T358 748Q338 748 318 741T275 716L249 757Q279 778
308 787T369 797Q418 797 449 772T480 701Q480 665 456 636T389 593Q423 581 440 556T457 505Q457 466 438 439T386 397T316 383Z" />
<glyph unicode="&#xb4;" d="M328 579L293 624L461 777L508 717L328 579Z" />
<glyph unicode="&#xb5;" d="M-10 -187L125 486H201L141 194Q127 126 143 90T214 54Q264 54 311 84T408 169L472 486H548Q538 438 526 384T503 276T483 179T468 108T462 76Q462 63 468 57T484 51Q488 51 491 51T502 53L501 -5Q492 -7 481 -9T455 -12Q417 -12 405
14T401 99H397Q369 68 339 44T274 5T200 -10Q169 -10 145 0T106 46Q99 7 93 -23T83 -78T74 -130T66 -187H-10Z" />
<glyph unicode="&#xb6;" d="M311 227Q251 227 201 246T121 305T90 403Q90 467 112 515T174 594T262 640T364 656H417L330 227H311ZM321 -80L468 656H544L398 -80H321Z" />
<glyph unicode="&#xb7;" d="M275 263Q247 263 230 282T212 331Q212 356 224 377T256 412T302 426Q331 426 348 407T365 357Q365 333 353 312T321 277T275 263Z" />
<glyph unicode="&#xb8;" d="M105 -226L104 -187Q164 -184 192 -171T222 -133Q223 -114 207 -104T153 -90L217 7H271L226 -65Q262 -74 275 -88T286 -128Q282 -175 234 -199T105 -226Z" />
<glyph unicode="&#xb9;" d="M298 395L360 707H256L263 746Q306 751 334 759T388 785H435L357 395H298ZM177 395L186 446H482L472 395H177Z" />
<glyph unicode="&#xba;" d="M312 387Q257 387 220 422T183 521Q183 585 210 630T282 700T376 724Q432 724 468 689T505 588Q505 525 478 480T407 411T312 387ZM320 437Q356 437 383 457T427 511T443 585Q443 627 424 651T369 675Q334 675 306 654T261 599T244
525Q244 484 264 461T320 437Z" />
<glyph unicode="&#xbb;" d="M323 53L293 87L444 255L358 420L401 450L519 280L507 216L323 53ZM297 53L267 87L418 255L332 420L375 450L493 280L481 216L297 53Z" />
<glyph unicode="&#xbc;" d="M87 333L133 566H52L60 605Q94 610 115 618T159 638H207L146 333H87ZM8 29L-28 72L192 262L217 233L8 29ZM393 390L368 418L576 621L613 578L393 390ZM407 0L447 195H499L459 0H407ZM258 74L264 103L429 317L466 295L326 115H532L523 74H258Z" />
<glyph unicode="&#xbd;" d="M87 333L133 566H52L60 605Q94 610 115 618T159 638H207L146 333H87ZM8 29L-28 72L192 262L217 233L8 29ZM393 390L368 418L576 621L613 578L393 390ZM266 0L273 34Q336 79 378 111T441 170T462 225Q462 246 451 257T417 268Q392 268
371 255T332 224L301 256Q325 283 358 300T431 317Q472 317 497 296T523 234Q523 181 479 138T359 43L356 48H521L511 0H266Z" />
<glyph unicode="&#xbe;" d="M110 321Q68 321 41 338T-5 377L25 410Q41 389 61 377T110 365Q139 365 159 379T179 421Q179 446 158 458T90 470L97 506Q142 506 167 522T192 565Q192 585 180 594T144 604Q125 604 105 595T66 570L41 602Q63 623 95 636T161 650Q200
650 225 632T251 577Q251 542 227 519T161 488L164 491Q196 486 216 468T236 418Q236 387 219 366T174 333T110 321ZM8 29L-28 72L192 262L217 233L8 29ZM393 390L368 418L576 621L613 578L393 390ZM407 0L447 195H499L459 0H407ZM258 74L264 103L429 317L466 295L326
115H532L523 74H258Z" />
<glyph unicode="&#xbf;" d="M349 254Q349 209 331 177T285 120T228 71Q202 51 181 33T146 -6T133 -54Q133 -88 154 -110T222 -132Q264 -132 296 -114T358 -63L401 -102Q365 -145 318 -170T209 -196Q162 -196 128 -181T75 -137T56 -70Q56 -26 75 5T123 61T184 110Q212
133 234 153T269 196T284 254H349ZM352 498Q378 498 394 481T411 436Q411 401 387 375T328 349Q301 349 286 366T270 411Q270 445 294 471T352 498Z" />
<glyph unicode="&#xc0;" d="M-23 0L333 656H422L503 0H423L386 377Q381 430 377 484T366 591H362Q334 537 309 486T256 379L62 0H-23ZM137 205L152 265H440L429 205H137ZM401 693L267 820L322 870L444 730L401 693Z" />
<glyph unicode="&#xc1;" d="M-23 0L333 656H422L503 0H423L386 377Q381 430 377 484T366 591H362Q334 537 309 486T256 379L62 0H-23ZM137 205L152 265H440L429 205H137ZM357 703L327 747L492 863L529 803L357 703Z" />
<glyph unicode="&#xc2;" d="M-23 0L333 656H422L503 0H423L386 377Q381 430 377 484T366 591H362Q334 537 309 486T256 379L62 0H-23ZM137 205L152 265H440L429 205H137ZM261 699L228 727L358 846H445L533 725L495 700L399 797H395L261 699Z" />
<glyph unicode="&#xc3;" d="M-23 0L333 656H422L503 0H423L386 377Q381 430 377 484T366 591H362Q334 537 309 486T256 379L62 0H-23ZM137 205L152 265H440L429 205H137ZM454 709Q429 709 411 719T380 744T353 770T323 781Q304 781 289 764T263 714L209 718Q222
777 254 809T332 841Q358 841 375 830T406 805T433 780T463 769Q482 769 497 786T523 836L577 832Q566 773 533 741T454 709Z" />
<glyph unicode="&#xc4;" d="M-23 0L333 656H422L503 0H423L386 377Q381 430 377 484T366 591H362Q334 537 309 486T256 379L62 0H-23ZM137 205L152 265H440L429 205H137ZM293 715Q275 715 264 725T253 755Q253 777 268 793T303 810Q321 810 332 800T343 769Q343
748 329 732T293 715ZM479 715Q461 715 450 725T439 755Q439 777 453 793T489 810Q506 810 517 800T529 769Q529 748 515 732T479 715Z" />
<glyph unicode="&#xc5;" d="M-23 0L333 656H422L503 0H423L386 377Q381 430 377 484T366 591H362Q334 537 309 486T256 379L62 0H-23ZM137 205L152 265H440L429 205H137ZM387 700Q353 700 327 719T300 779Q300 806 314 828T352 864T406 878Q441 878 467 859T493
799Q493 771 479 749T441 713T387 700ZM389 736Q412 736 429 753T447 795Q447 817 436 829T404 842Q381 842 364 825T346 782Q346 762 357 749T389 736Z" />
<glyph unicode="&#xc6;" d="M-62 0L337 656H649L636 591H445L402 379H556L543 314H389L340 66H541L528 0H257L376 596H371Q340 541 308 488T243 380L19 0H-62ZM108 197L121 258H345L333 197H108Z" />
<glyph unicode="&#xc7;" d="M310 -12Q235 -12 183 21T104 114T77 253Q77 315 93 375T138 488T209 581T303 645T416 668Q472 668 512 641T578 571L523 530Q504 563 477 582T412 601Q365 601 326 582T255 528T201 449T168 357T157 260Q157 200 174 154T228 82T324
55Q363 55 397 71T463 114L499 64Q474 43 446 26T384 -1T310 -12ZM158 -226L157 -187Q217 -184 245 -171T275 -133Q276 -114 260 -104T206 -90L270 7H324L279 -65Q315 -74 328 -88T339 -128Q335 -175 287 -199T158 -226Z" />
<glyph unicode="&#xc8;" d="M60 0L192 656H595L582 591H255L213 378H486L473 312H201L150 66H486L473 0H60ZM435 693L301 820L356 870L478 730L435 693Z" />
<glyph unicode="&#xc9;" d="M60 0L192 656H595L582 591H255L213 378H486L473 312H201L150 66H486L473 0H60ZM391 703L361 747L526 863L563 803L391 703Z" />
<glyph unicode="&#xca;" d="M60 0L192 656H595L582 591H255L213 378H486L473 312H201L150 66H486L473 0H60ZM295 699L262 727L392 846H479L567 725L529 700L433 797H429L295 699Z" />
<glyph unicode="&#xcb;" d="M60 0L192 656H595L582 591H255L213 378H486L473 312H201L150 66H486L473 0H60ZM327 715Q309 715 298 725T287 755Q287 777 302 793T337 810Q355 810 366 800T377 769Q377 748 363 732T327 715ZM513 715Q495 715 484 725T473 755Q473
777 487 793T523 810Q540 810 551 800T563 769Q563 748 549 732T513 715Z" />
<glyph unicode="&#xcc;" d="M35 0L49 66H211L316 591H152L167 656H573L559 591H394L288 66H454L439 0H35ZM401 693L267 820L322 870L444 730L401 693Z" />
<glyph unicode="&#xcd;" d="M35 0L49 66H211L316 591H152L167 656H573L559 591H394L288 66H454L439 0H35ZM357 703L327 747L492 863L529 803L357 703Z" />
<glyph unicode="&#xce;" d="M35 0L49 66H211L316 591H152L167 656H573L559 591H394L288 66H454L439 0H35ZM261 699L228 727L358 846H445L533 725L495 700L399 797H395L261 699Z" />
<glyph unicode="&#xcf;" d="M35 0L49 66H211L316 591H152L167 656H573L559 591H394L288 66H454L439 0H35ZM293 715Q275 715 264 725T253 755Q253 777 268 793T303 810Q321 810 332 800T343 769Q343 748 329 732T293 715ZM479 715Q461 715 450 725T439 755Q439
777 453 793T489 810Q506 810 517 800T529 769Q529 748 515 732T479 715Z" />
<glyph unicode="&#xd0;" d="M320 318H24L38 370L116 374H334L320 318ZM37 0L168 656H299Q433 656 502 589T572 400Q572 311 548 238T478 111T365 29T214 0H37ZM127 64H214Q301 64 363 104T458 219T492 395Q492 490 442 541T296 593H233L127 64Z" />
<glyph unicode="&#xd1;" d="M25 0L156 656H235L369 234L406 99H410Q413 123 416 150T424 204T432 255T440 301L510 656H584L453 0H375L240 422L203 558H199Q195 525 190 489T180 418T168 351L99 0H25ZM454 709Q429 709 411 719T380 744T353 770T323 781Q304 781
289 764T263 714L209 718Q222 777 254 809T332 841Q358 841 375 830T406 805T433 780T463 769Q482 769 497 786T523 836L577 832Q566 773 533 741T454 709Z" />
<glyph unicode="&#xd2;" d="M254 -12Q187 -12 140 20T67 111T41 247Q41 310 55 371T96 485T161 580T248 644T355 668Q422 668 469 636T542 546T567 409Q567 346 553 286T513 171T448 76T361 12T254 -12ZM261 55Q304 55 339 75T403 131T449 213T478 310T488 413Q488
470 473 512T427 578T348 601Q305 601 270 581T206 525T160 443T131 346T120 244Q120 186 135 144T182 78T261 55ZM401 693L267 820L322 870L444 730L401 693Z" />
<glyph unicode="&#xd3;" d="M254 -12Q187 -12 140 20T67 111T41 247Q41 310 55 371T96 485T161 580T248 644T355 668Q422 668 469 636T542 546T567 409Q567 346 553 286T513 171T448 76T361 12T254 -12ZM261 55Q304 55 339 75T403 131T449 213T478 310T488 413Q488
470 473 512T427 578T348 601Q305 601 270 581T206 525T160 443T131 346T120 244Q120 186 135 144T182 78T261 55ZM357 703L327 747L492 863L529 803L357 703Z" />
<glyph unicode="&#xd4;" d="M254 -12Q187 -12 140 20T67 111T41 247Q41 310 55 371T96 485T161 580T248 644T355 668Q422 668 469 636T542 546T567 409Q567 346 553 286T513 171T448 76T361 12T254 -12ZM261 55Q304 55 339 75T403 131T449 213T478 310T488 413Q488
470 473 512T427 578T348 601Q305 601 270 581T206 525T160 443T131 346T120 244Q120 186 135 144T182 78T261 55ZM261 699L228 727L358 846H445L533 725L495 700L399 797H395L261 699Z" />
<glyph unicode="&#xd5;" d="M254 -12Q187 -12 140 20T67 111T41 247Q41 310 55 371T96 485T161 580T248 644T355 668Q422 668 469 636T542 546T567 409Q567 346 553 286T513 171T448 76T361 12T254 -12ZM261 55Q304 55 339 75T403 131T449 213T478 310T488 413Q488
470 473 512T427 578T348 601Q305 601 270 581T206 525T160 443T131 346T120 244Q120 186 135 144T182 78T261 55ZM454 709Q429 709 411 719T380 744T353 770T323 781Q304 781 289 764T263 714L209 718Q222 777 254 809T332 841Q358 841 375 830T406 805T433 780T463
769Q482 769 497 786T523 836L577 832Q566 773 533 741T454 709Z" />
<glyph unicode="&#xd6;" d="M254 -12Q187 -12 140 20T67 111T41 247Q41 310 55 371T96 485T161 580T248 644T355 668Q422 668 469 636T542 546T567 409Q567 346 553 286T513 171T448 76T361 12T254 -12ZM261 55Q304 55 339 75T403 131T449 213T478 310T488 413Q488
470 473 512T427 578T348 601Q305 601 270 581T206 525T160 443T131 346T120 244Q120 186 135 144T182 78T261 55ZM293 715Q275 715 264 725T253 755Q253 777 268 793T303 810Q321 810 332 800T343 769Q343 748 329 732T293 715ZM479 715Q461 715 450 725T439 755Q439
777 453 793T489 810Q506 810 517 800T529 769Q529 748 515 732T479 715Z" />
<glyph unicode="&#xd7;" d="M145 127L103 171L259 330L103 489L145 532L300 371L455 532L497 489L341 330L497 171L455 127L300 288L145 127Z" />
<glyph unicode="&#xd8;" d="M254 -12Q187 -12 140 20T67 111T41 247Q41 310 55 371T95 485T160 580T248 644T355 668Q422 668 469 636T542 545T567 409Q567 347 553 286T513 171T448 76T361 12T254 -12ZM261 55Q304 55 339 75T403 131T450 213T480 310T490 413Q490
471 475 513T428 578T348 601Q305 601 269 581T205 525T158 443T128 346T118 244Q118 186 134 144T182 78T261 55ZM34 -34L-14 6L576 690L625 650L34 -34Z" />
<glyph unicode="&#xd9;" d="M255 -12Q163 -12 114 41T64 186Q64 210 66 231T74 279L149 656H227L152 277Q146 254 144 234T141 195Q141 129 172 92T265 55Q303 55 335 73T392 135T432 252L512 656H588L506 244Q487 148 451 93T365 13T255 -12ZM401 693L267 820L322
870L444 730L401 693Z" />
<glyph unicode="&#xda;" d="M255 -12Q163 -12 114 41T64 186Q64 210 66 231T74 279L149 656H227L152 277Q146 254 144 234T141 195Q141 129 172 92T265 55Q303 55 335 73T392 135T432 252L512 656H588L506 244Q487 148 451 93T365 13T255 -12ZM357 703L327 747L492
863L529 803L357 703Z" />
<glyph unicode="&#xdb;" d="M255 -12Q163 -12 114 41T64 186Q64 210 66 231T74 279L149 656H227L152 277Q146 254 144 234T141 195Q141 129 172 92T265 55Q303 55 335 73T392 135T432 252L512 656H588L506 244Q487 148 451 93T365 13T255 -12ZM261 699L228 727L358
846H445L533 725L495 700L399 797H395L261 699Z" />
<glyph unicode="&#xdc;" d="M255 -12Q163 -12 114 41T64 186Q64 210 66 231T74 279L149 656H227L152 277Q146 254 144 234T141 195Q141 129 172 92T265 55Q303 55 335 73T392 135T432 252L512 656H588L506 244Q487 148 451 93T365 13T255 -12ZM293 715Q275 715
264 725T253 755Q253 777 268 793T303 810Q321 810 332 800T343 769Q343 748 329 732T293 715ZM479 715Q461 715 450 725T439 755Q439 777 453 793T489 810Q506 810 517 800T529 769Q529 748 515 732T479 715Z" />
<glyph unicode="&#xdd;" d="M199 0L246 229L109 657H189L250 455Q262 415 274 371T295 292H299Q312 313 329 341T366 398T404 455L544 657H626L321 221L276 0H199ZM600 703L570 747L735 863L772 803L600 703Z" />
<glyph unicode="&#xde;" d="M44 0L175 656H253L231 543H353Q412 543 457 527T527 475T552 382Q552 322 531 278T472 206T380 164T264 150H151L122 0H44ZM165 213H267Q369 213 422 253T475 372Q475 430 438 455T330 480H217L165 213Z" />
<glyph unicode="&#xdf;" d="M353 -12Q316 -12 279 0T208 39L242 93Q267 71 293 60T353 48Q382 48 406 59T444 89T459 133Q459 162 444 183T404 221T356 257T316 297T300 350Q300 381 314 404T348 446T388 485T423 528T437 584Q437 619 418 640T356 662Q301 662
263 620T208 501L109 0H32L136 518Q148 581 178 627T254 698T359 724Q403 724 437 710T491 667T512 592Q512 555 498 528T464 481T424 443T390 406T376 363Q376 342 391 324T430 290T477 253T516 206T532 141Q532 98 510 64T448 9T353 -12Z" />
<glyph unicode="&#xe0;" d="M219 -12Q143 -12 98 35T52 174Q52 240 72 298T130 401T215 472T319 498Q371 498 409 478T468 425H472L491 486H553L456 0H393L401 74H397Q359 35 313 12T219 -12ZM242 52Q282 52 325 76T409 146L454 362Q429 401 396 417T329 434Q288
434 252 414T188 359T146 279T131 186Q131 118 161 85T242 52ZM404 570L272 734L338 783L452 606L404 570Z" />
<glyph unicode="&#xe1;" d="M219 -12Q143 -12 98 35T52 174Q52 240 72 298T130 401T215 472T319 498Q371 498 409 478T468 425H472L491 486H553L456 0H393L401 74H397Q359 35 313 12T219 -12ZM242 52Q282 52 325 76T409 146L454 362Q429 401 396 417T329 434Q288
434 252 414T188 359T146 279T131 186Q131 118 161 85T242 52ZM343 579L308 624L476 777L523 717L343 579Z" />
<glyph unicode="&#xe2;" d="M219 -12Q143 -12 98 35T52 174Q52 240 72 298T130 401T215 472T319 498Q371 498 409 478T468 425H472L491 486H553L456 0H393L401 74H397Q359 35 313 12T219 -12ZM242 52Q282 52 325 76T409 146L454 362Q429 401 396 417T329 434Q288
434 252 414T188 359T146 279T131 186Q131 118 161 85T242 52ZM247 568L216 602L354 740H437L526 599L487 568L393 684H389L247 568Z" />
<glyph unicode="&#xe3;" d="M219 -12Q143 -12 98 35T52 174Q52 240 72 298T130 401T215 472T319 498Q371 498 409 478T468 425H472L491 486H553L456 0H393L401 74H397Q359 35 313 12T219 -12ZM242 52Q282 52 325 76T409 146L454 362Q429 401 396 417T329 434Q288
434 252 414T188 359T146 279T131 186Q131 118 161 85T242 52ZM449 577Q423 577 407 590T378 619T353 649T320 662Q298 662 283 640T261 582L206 585Q214 625 229 655T268 703T326 721Q352 721 368 708T397 678T422 649T455 636Q478 636 492 658T514 716L569 712Q561
674 546 644T507 595T449 577Z" />
<glyph unicode="&#xe4;" d="M219 -12Q143 -12 98 35T52 174Q52 240 72 298T130 401T215 472T319 498Q371 498 409 478T468 425H472L491 486H553L456 0H393L401 74H397Q359 35 313 12T219 -12ZM242 52Q282 52 325 76T409 146L454 362Q429 401 396 417T329 434Q288
434 252 414T188 359T146 279T131 186Q131 118 161 85T242 52ZM282 589Q263 589 251 600T239 633Q239 658 255 675T295 693Q314 693 326 681T338 648Q338 623 322 606T282 589ZM468 589Q449 589 437 600T425 633Q425 658 441 675T481 693Q500 693 512 681T524 648Q524
623 508 606T468 589Z" />
<glyph unicode="&#xe5;" d="M219 -12Q143 -12 98 35T52 174Q52 240 72 298T130 401T215 472T319 498Q371 498 409 478T468 425H472L491 486H553L456 0H393L401 74H397Q359 35 313 12T219 -12ZM242 52Q282 52 325 76T409 146L454 362Q429 401 396 417T329 434Q288
434 252 414T188 359T146 279T131 186Q131 118 161 85T242 52ZM372 556Q332 556 305 577T277 638Q277 684 310 716T395 749Q436 749 463 728T491 667Q491 622 458 589T372 556ZM377 592Q402 592 420 613T439 664Q439 686 427 699T391 713Q366 713 348 692T329 641Q329
619 341 606T377 592Z" />
<glyph unicode="&#xe6;" d="M88 -12Q36 -12 7 17T-22 97Q-22 189 55 237T280 308L275 258Q202 246 152 227T76 181T50 112Q50 81 66 65T109 49Q141 49 181 71T253 132L274 89Q228 37 180 13T88 -12ZM300 224L305 283H542L527 269Q532 289 534 307T536 343Q536
387 521 412T470 437Q437 437 408 415T357 356T323 270T310 169Q310 116 333 83T405 49Q435 49 461 58T514 86L538 36Q512 16 474 2T396 -12Q356 -12 328 2T281 40T255 93T246 151Q246 176 247 198T253 245T267 304Q281 362 265 399T199 436Q166 436 135 423T79
392L51 440Q80 461 123 479T217 498Q267 498 296 468T329 389L318 391Q350 445 394 471T485 498Q525 498 550 477T587 422T599 346Q599 301 592 271T578 224H300Z" />
<glyph unicode="&#xe7;" d="M291 -12Q227 -12 177 12T97 83T67 202Q67 269 91 323T156 416T250 476T360 498Q424 498 470 472T543 411L494 367Q467 401 433 417T350 434Q313 434 276 417T209 370T162 299T144 211Q144 131 188 92T301 52Q344 52 383 71T456 119L487
67Q449 32 397 10T291 -12ZM139 -226L138 -187Q198 -184 226 -171T256 -133Q257 -114 241 -104T187 -90L251 7H305L260 -65Q296 -74 309 -88T320 -128Q316 -175 268 -199T139 -226Z" />
<glyph unicode="&#xe8;" d="M270 -12Q207 -12 161 12T89 83T63 198Q63 264 85 318T146 413T235 476T340 498Q429 498 477 445T525 311Q525 286 521 260T512 224H122L132 284H479L447 269Q450 280 451 291T453 314Q453 371 422 404T336 437Q301 437 266 420T203
372T157 298T139 202Q139 153 157 119T208 67T285 49Q333 49 375 67T451 112L480 60Q443 31 389 10T270 -12ZM397 570L265 734L331 783L445 606L397 570Z" />
<glyph unicode="&#xe9;" d="M270 -12Q207 -12 161 12T89 83T63 198Q63 264 85 318T146 413T235 476T340 498Q429 498 477 445T525 311Q525 286 521 260T512 224H122L132 284H479L447 269Q450 280 451 291T453 314Q453 371 422 404T336 437Q301 437 266 420T203
372T157 298T139 202Q139 153 157 119T208 67T285 49Q333 49 375 67T451 112L480 60Q443 31 389 10T270 -12ZM336 579L301 624L469 777L516 717L336 579Z" />
<glyph unicode="&#xea;" d="M270 -12Q207 -12 161 12T89 83T63 198Q63 264 85 318T146 413T235 476T340 498Q429 498 477 445T525 311Q525 286 521 260T512 224H122L132 284H479L447 269Q450 280 451 291T453 314Q453 371 422 404T336 437Q301 437 266 420T203
372T157 298T139 202Q139 153 157 119T208 67T285 49Q333 49 375 67T451 112L480 60Q443 31 389 10T270 -12ZM240 568L209 602L347 740H430L519 599L480 568L386 684H382L240 568Z" />
<glyph unicode="&#xeb;" d="M270 -12Q207 -12 161 12T89 83T63 198Q63 264 85 318T146 413T235 476T340 498Q429 498 477 445T525 311Q525 286 521 260T512 224H122L132 284H479L447 269Q450 280 451 291T453 314Q453 371 422 404T336 437Q301 437 266 420T203
372T157 298T139 202Q139 153 157 119T208 67T285 49Q333 49 375 67T451 112L480 60Q443 31 389 10T270 -12ZM275 589Q256 589 244 600T232 633Q232 658 248 675T288 693Q307 693 319 681T331 648Q331 623 315 606T275 589ZM461 589Q442 589 430 600T418 633Q418
658 434 675T474 693Q493 693 505 681T517 648Q517 623 501 606T461 589Z" />
<glyph unicode="&#xec;" d="M347 -12Q289 -12 253 19T216 110Q216 122 218 135T224 163L282 424H104L117 486H371L298 156Q297 147 296 140T294 124Q294 86 315 69T369 52Q392 52 414 59T462 78L480 20Q449 6 418 -3T347 -12ZM626 570L494 734L560 783L674 606L626 570Z" />
<glyph unicode="&#xed;" d="M347 -12Q289 -12 253 19T216 110Q216 122 218 135T224 163L282 424H104L117 486H371L298 156Q297 147 296 140T294 124Q294 86 315 69T369 52Q392 52 414 59T462 78L480 20Q449 6 418 -3T347 -12ZM565 579L530 624L698 777L745 717L565 579Z" />
<glyph unicode="&#xee;" d="M347 -12Q289 -12 253 19T216 110Q216 122 218 135T224 163L282 424H104L117 486H371L298 156Q297 147 296 140T294 124Q294 86 315 69T369 52Q392 52 414 59T462 78L480 20Q449 6 418 -3T347 -12ZM469 568L438 602L576 740H659L748
599L709 568L615 684H611L469 568Z" />
<glyph unicode="&#xef;" d="M347 -12Q289 -12 253 19T216 110Q216 122 218 135T224 163L282 424H104L117 486H371L298 156Q297 147 296 140T294 124Q294 86 315 69T369 52Q392 52 414 59T462 78L480 20Q449 6 418 -3T347 -12ZM504 589Q485 589 473 600T461 633Q461
658 477 675T517 693Q536 693 548 681T560 648Q560 623 544 606T504 589ZM690 589Q671 589 659 600T647 633Q647 658 663 675T703 693Q722 693 734 681T746 648Q746 623 730 606T690 589Z" />
<glyph unicode="&#xf0;" d="M239 -12Q184 -12 139 11T66 78T39 184Q39 262 75 321T171 413T306 446Q349 446 383 432T443 396T481 347L473 293Q446 343 404 365T316 387Q252 387 207 359T138 286T114 191Q114 127 151 90T248 52Q299 52 339 73T407 134T449 226T464
342Q464 428 437 491T362 600T251 678L285 734Q359 699 416 644T506 512T539 339Q539 231 502 153T398 31T239 -12ZM238 500L212 550L564 714L589 664L238 500Z" />
<glyph unicode="&#xf1;" d="M36 0L133 486H195L183 387H187Q216 416 250 441T322 482T405 498Q469 498 499 465T530 377Q530 356 528 337T521 297L461 0H384L442 289Q447 308 449 324T451 357Q451 393 432 412T374 432Q325 432 275 401T175 314L112 0H36ZM447
577Q421 577 405 590T376 619T351 649T318 662Q296 662 281 640T259 582L204 585Q212 625 227 655T266 703T324 721Q350 721 366 708T395 678T420 649T453 636Q476 636 490 658T512 716L567 712Q559 674 544 644T505 595T447 577Z" />
<glyph unicode="&#xf2;" d="M250 -12Q186 -12 141 15T71 90T46 201Q46 265 68 319T130 413T219 476T326 498Q389 498 434 471T504 396T529 285Q529 222 507 168T445 73T356 11T250 -12ZM255 52Q294 52 329 70T392 119T436 191T452 280Q452 351 417 392T320 434Q282
434 247 416T184 367T140 295T124 206Q124 135 159 94T255 52ZM389 570L257 734L323 783L437 606L389 570Z" />
<glyph unicode="&#xf3;" d="M250 -12Q186 -12 141 15T71 90T46 201Q46 265 68 319T130 413T219 476T326 498Q389 498 434 471T504 396T529 285Q529 222 507 168T445 73T356 11T250 -12ZM255 52Q294 52 329 70T392 119T436 191T452 280Q452 351 417 392T320 434Q282
434 247 416T184 367T140 295T124 206Q124 135 159 94T255 52ZM328 579L293 624L461 777L508 717L328 579Z" />
<glyph unicode="&#xf4;" d="M250 -12Q186 -12 141 15T71 90T46 201Q46 265 68 319T130 413T219 476T326 498Q389 498 434 471T504 396T529 285Q529 222 507 168T445 73T356 11T250 -12ZM255 52Q294 52 329 70T392 119T436 191T452 280Q452 351 417 392T320 434Q282
434 247 416T184 367T140 295T124 206Q124 135 159 94T255 52ZM232 568L201 602L339 740H422L511 599L472 568L378 684H374L232 568Z" />
<glyph unicode="&#xf5;" d="M250 -12Q186 -12 141 15T71 90T46 201Q46 265 68 319T130 413T219 476T326 498Q389 498 434 471T504 396T529 285Q529 222 507 168T445 73T356 11T250 -12ZM255 52Q294 52 329 70T392 119T436 191T452 280Q452 351 417 392T320 434Q282
434 247 416T184 367T140 295T124 206Q124 135 159 94T255 52ZM434 577Q408 577 392 590T363 619T338 649T305 662Q283 662 268 640T246 582L191 585Q199 625 214 655T253 703T311 721Q337 721 353 708T382 678T407 649T440 636Q463 636 477 658T499 716L554 712Q546
674 531 644T492 595T434 577Z" />
<glyph unicode="&#xf6;" d="M250 -12Q186 -12 141 15T71 90T46 201Q46 265 68 319T130 413T219 476T326 498Q389 498 434 471T504 396T529 285Q529 222 507 168T445 73T356 11T250 -12ZM255 52Q294 52 329 70T392 119T436 191T452 280Q452 351 417 392T320 434Q282
434 247 416T184 367T140 295T124 206Q124 135 159 94T255 52ZM267 589Q248 589 236 600T224 633Q224 658 240 675T280 693Q299 693 311 681T323 648Q323 623 307 606T267 589ZM453 589Q434 589 422 600T410 633Q410 658 426 675T466 693Q485 693 497 681T509 648Q509
623 493 606T453 589Z" />
<glyph unicode="&#xf7;" d="M300 458Q278 458 263 472T248 510Q248 533 263 547T300 561Q322 561 337 547T352 510Q352 487 337 473T300 458ZM300 98Q278 98 263 112T248 150Q248 173 263 187T300 201Q322 201 337 187T352 150Q352 127 337 113T300 98ZM87 301V359H513V301H87Z"
/>
<glyph unicode="&#xf8;" d="M250 -12Q186 -12 141 15T71 90T46 201Q46 265 68 319T130 413T219 475T326 498Q390 498 435 471T504 396T529 285Q529 221 507 167T445 73T356 11T250 -12ZM252 50Q294 50 331 68T395 119T439 193T455 283Q455 352 421 394T323 436Q281
436 245 418T180 367T137 293T121 203Q121 135 155 93T252 50ZM42 -30L-1 14L533 516L576 472L42 -30Z" />
<glyph unicode="&#xf9;" d="M182 -12Q117 -12 87 21T56 109Q56 131 58 150T65 189L125 486H201L143 197Q140 179 137 163T134 129Q134 93 154 74T211 54Q260 54 310 85T409 172L472 486H549L452 0H389L402 99H398Q368 70 335 45T263 4T182 -12ZM643 570L511 734L577
783L691 606L643 570Z" />
<glyph unicode="&#xfa;" d="M182 -12Q117 -12 87 21T56 109Q56 131 58 150T65 189L125 486H201L143 197Q140 179 137 163T134 129Q134 93 154 74T211 54Q260 54 310 85T409 172L472 486H549L452 0H389L402 99H398Q368 70 335 45T263 4T182 -12ZM582 579L547 624L715
777L762 717L582 579Z" />
<glyph unicode="&#xfb;" d="M182 -12Q117 -12 87 21T56 109Q56 131 58 150T65 189L125 486H201L143 197Q140 179 137 163T134 129Q134 93 154 74T211 54Q260 54 310 85T409 172L472 486H549L452 0H389L402 99H398Q368 70 335 45T263 4T182 -12ZM486 568L455 602L593
740H676L765 599L726 568L632 684H628L486 568Z" />
<glyph unicode="&#xfc;" d="M182 -12Q117 -12 87 21T56 109Q56 131 58 150T65 189L125 486H201L143 197Q140 179 137 163T134 129Q134 93 154 74T211 54Q260 54 310 85T409 172L472 486H549L452 0H389L402 99H398Q368 70 335 45T263 4T182 -12ZM521 589Q502 589
490 600T478 633Q478 658 494 675T534 693Q553 693 565 681T577 648Q577 623 561 606T521 589ZM707 589Q688 589 676 600T664 633Q664 658 680 675T720 693Q739 693 751 681T763 648Q763 623 747 606T707 589Z" />
<glyph unicode="&#xfd;" d="M33 -209Q11 -209 -9 -204T-44 -191L-20 -136Q-8 -142 7 -146T38 -150Q68 -150 90 -140T133 -108T178 -50L208 -2L87 486H161L225 214Q232 182 240 141T254 66H258Q275 99 298 140T340 214L503 486H583L252 -52Q220 -105 189 -140T120
-192T33 -209ZM575 579L540 624L708 777L755 717L575 579Z" />
<glyph unicode="&#xfe;" d="M-5 -205L178 712H255L216 522L190 415H193Q230 449 276 473T370 498Q448 498 492 448T537 305Q537 217 504 145T410 31T270 -12Q224 -12 186 8T123 58H120L102 -46L71 -205H-5ZM265 52Q307 52 342 71T403 123T443 201T458 294Q458
365 428 399T345 434Q308 434 265 409T181 340L137 122Q163 84 196 68T265 52Z" />
<glyph unicode="&#xff;" d="M33 -209Q11 -209 -9 -204T-44 -191L-20 -136Q-8 -142 7 -146T38 -150Q68 -150 90 -140T133 -108T178 -50L208 -2L87 486H161L225 214Q232 182 240 141T254 66H258Q275 99 298 140T340 214L503 486H583L252 -52Q220 -105 189 -140T120
-192T33 -209ZM514 589Q495 589 483 600T471 633Q471 658 487 675T527 693Q546 693 558 681T570 648Q570 623 554 606T514 589ZM700 589Q681 589 669 600T657 633Q657 658 673 675T713 693Q732 693 744 681T756 648Q756 623 740 606T700 589Z" />
<glyph unicode="&#x2013;" d="M62 219L76 285H516L502 219H62Z" />
<glyph unicode="&#x2014;" d="M-18 219L-4 285H596L582 219H-18Z" />
<glyph unicode="&#x2018;" d="M331 373Q299 373 278 394T256 462Q256 517 282 563T357 645T471 698L483 654Q419 635 380 596T333 503V419L295 494Q309 507 326 514T362 522Q386 522 400 506T415 461Q415 424 391 399T331 373Z" />
<glyph unicode="&#x2019;" d="M233 373L221 418Q285 438 323 477T370 568L369 653L408 578Q394 565 377 557T340 549Q317 549 302 566T287 611Q287 648 312 673T371 699Q404 699 425 677T446 610Q446 555 420 508T346 426T233 373Z" />
<glyph unicode="&#x201a;" d="M163 -203L151 -158Q215 -138 253 -99T300 -8L299 77L338 2Q324 -11 307 -19T270 -27Q247 -27 232 -10T217 35Q217 72 242 97T301 123Q334 123 355 101T376 34Q376 -21 350 -68T276 -150T163 -203Z" />
<glyph unicode="&#x201c;" d="M472 373Q440 373 419 394T397 462Q397 517 423 563T498 645T612 698L624 654Q560 635 521 596T474 503V419L436 494Q450 507 467 514T503 522Q527 522 541 506T556 461Q556 424 532 399T472 373ZM446 373Q414 373 393 394T371 462Q371
517 397 563T472 645T586 698L598 654Q534 635 495 596T448 503V419L410 494Q424 507 441 514T477 522Q501 522 515 506T530 461Q530 424 506 399T446 373Z" />
<glyph unicode="&#x201d;" d="M374 373L362 418Q426 438 464 477T511 568L510 653L549 578Q535 565 518 557T481 549Q458 549 443 566T428 611Q428 648 453 673T512 699Q545 699 566 677T587 610Q587 555 561 508T487 426T374 373ZM348 373L336 418Q400 438 438
477T485 568L484 653L523 578Q509 565 492 557T455 549Q432 549 417 566T402 611Q402 648 427 673T486 699Q519 699 540 677T561 610Q561 555 535 508T461 426T348 373Z" />
<glyph unicode="&#x201e;" d="M118 -203L106 -158Q170 -138 208 -99T255 -8L254 77L293 2Q279 -11 262 -19T225 -27Q202 -27 187 -10T172 35Q172 72 197 97T256 123Q289 123 310 101T331 34Q331 -21 305 -68T231 -150T118 -203ZM348 -203L336 -158Q400 -138 438
-99T485 -8L484 77L523 2Q509 -11 492 -19T455 -27Q432 -27 417 -10T402 35Q402 72 427 97T486 123Q519 123 540 101T561 34Q561 -21 535 -68T461 -150T348 -203Z" />
<glyph unicode="&#x2022;" d="M265 117Q214 117 178 150T142 237Q142 289 166 327T231 386T318 407Q370 407 405 375T440 287Q440 235 416 197T352 138T265 117Z" />
<glyph unicode="&#x2039;" d="M304 52L185 222L197 286L381 449L411 415L260 247L346 82L304 52Z" />
<glyph unicode="&#x203a;" d="M182 53L152 87L303 255L217 420L260 450L378 280L366 216L182 53Z" />
</font>
</defs>
</svg>
